Jibri Stops Live Streaming automatically sometime

I noticed with latest version of Jitsi & jibri, Live Streaming stops automatically.
here are logs:

2021-09-26 02:52:04.331 INFO: [20] org.jitsi.jibri.selenium.status_checks.MediaReceivedStatusCheck.log() Jibri client receive bitrates: {audio={download=53, upload=0}, download=649, upload=0, video={download=596, upload=0}}, num participants: 18, numMutedParticipants: 15, numJigasis: 0, all clients muted? false
2021-09-26 02:52:19.333 INFO: [20] org.jitsi.jibri.selenium.status_checks.MediaReceivedStatusCheck.log() Jibri client receive bitrates: {audio={download=54, upload=0}, download=651, upload=0, video={download=597, upload=0}}, num participants: 18, numMutedParticipants: 15, numJigasis: 0, all clients muted? false
2021-09-26 02:52:34.329 INFO: [20] org.jitsi.jibri.selenium.status_checks.MediaReceivedStatusCheck.log() Jibri client receive bitrates: {audio={download=54, upload=0}, download=658, upload=0, video={download=604, upload=0}}, num participants: 18, numMutedParticipants: 14, numJigasis: 0, all clients muted? false
2021-09-26 02:52:49.333 INFO: [20] org.jitsi.jibri.selenium.status_checks.MediaReceivedStatusCheck.log() Jibri client receive bitrates: {audio={download=83, upload=0}, download=619, upload=0, video={download=536, upload=0}}, num participants: 18, numMutedParticipants: 14, numJigasis: 0, all clients muted? false
2021-09-26 02:53:02.189 FINE: [20] org.jitsi.jibri.webhooks.v1.WebhookClient.log() Updating 0 subscribers of status
2021-09-26 02:53:04.332 INFO: [20] org.jitsi.jibri.selenium.status_checks.MediaReceivedStatusCheck.log() Jibri client receive bitrates: {audio={download=62, upload=0}, download=545, upload=0, video={download=483, upload=0}}, num participants: 18, numMutedParticipants: 15, numJigasis: 0, all clients muted? false
2021-09-26 02:53:19.328 INFO: [20] org.jitsi.jibri.selenium.status_checks.MediaReceivedStatusCheck.log() Jibri client receive bitrates: {audio={download=53, upload=0}, download=547, upload=0, video={download=494, upload=0}}, num participants: 18, numMutedParticipants: 15, numJigasis: 0, all clients muted? false
2021-09-26 02:53:34.328 INFO: [20] org.jitsi.jibri.selenium.status_checks.MediaReceivedStatusCheck.log() Jibri client receive bitrates: {audio={download=55, upload=0}, download=628, upload=0, video={download=573, upload=0}}, num participants: 18, numMutedParticipants: 15, numJigasis: 0, all clients muted? false
2021-09-26 02:53:49.341 INFO: [20] org.jitsi.jibri.selenium.status_checks.MediaReceivedStatusCheck.log() Jibri client receive bitrates: {audio={download=77, upload=0}, download=619, upload=0, video={download=542, upload=0}}, num participants: 18, numMutedParticipants: 15, numJigasis: 0, all clients muted? false
2021-09-26 02:54:02.189 FINE: [20] org.jitsi.jibri.webhooks.v1.WebhookClient.log() Updating 0 subscribers of status
2021-09-26 02:54:05.022 INFO: [20] org.jitsi.jibri.selenium.status_checks.MediaReceivedStatusCheck.log() Jibri client receive bitrates: {audio={download=80, upload=0}, download=655, upload=0, video={download=575, upload=0}}, num participants: 18, numMutedParticipants: 15, numJigasis: 0, all clients muted? false
2021-09-26 02:54:06.939 FINE: [20] org.jitsi.jibri.util.ProcessStatePublisher.log() Process ffmpeg hasn't written in 2 seconds, publishing periodic update
2021-09-26 02:54:06.939 INFO: [1194] org.jitsi.jibri.capture.ffmpeg.FfmpegCapturer.log() Ffmpeg quit abruptly.  Last output line: frame=20316 fps= 28 q=23.0 q=23.0 size=  108019kB time=00:11:17.21 bitrate=1306.7kbits/s speed=0.925x    
2021-09-26 02:54:06.939 INFO: [1194] org.jitsi.jibri.capture.ffmpeg.FfmpegCapturer.log() Ffmpeg capturer transitioning from state Running to Error: QuitUnexpectedly SESSION frame=20316 fps= 28 q=23.0 q=23.0 size=  108019kB time=00:11:17.21 bitrate=1306.7kbits/s speed=0.925x    
2021-09-26 02:54:06.939 INFO: [1194] org.jitsi.jibri.service.impl.StreamingJibriService.log() Streaming service transitioning from state Running to Error: QuitUnexpectedly SESSION frame=20316 fps= 28 q=23.0 q=23.0 size=  108019kB time=00:11:17.21 bitrate=1306.7kbits/s speed=0.925x    
2021-09-26 02:54:06.940 INFO: [1194] org.jitsi.jibri.api.xmpp.XmppApi.log() Current service had an error Error: QuitUnexpectedly SESSION frame=20316 fps= 28 q=23.0 q=23.0 size=  108019kB time=00:11:17.21 bitrate=1306.7kbits/s speed=0.925x    , sending error iq <iq to='jibribrewery@internal.auth.vc1111.mydomain.com/focus' id='gS322-2396' type='set'><jibri xmlns='http://jitsi.org/protocol/jibri' status='off' failure_reason='error' should_retry='true'/></iq>
2021-09-26 02:54:06.940 FINE: [1194] org.jitsi.jibri.statsd.JibriStatsDClient.log() Incrementing statsd counter: stop:live_stream
2021-09-26 02:54:06.940 INFO: [1194] org.jitsi.jibri.JibriManager.log() Stopping the current service
2021-09-26 02:54:06.940 INFO: [1194] org.jitsi.jibri.service.impl.StreamingJibriService.log() Stopping capturer
2021-09-26 02:54:06.940 INFO: [1194] org.jitsi.jibri.util.JibriSubprocess.log() Stopping ffmpeg process
2021-09-26 02:54:06.943 INFO: [1194] org.jitsi.jibri.util.JibriSubprocess.log() ffmpeg exited with value 137
2021-09-26 02:54:06.943 INFO: [1194] org.jitsi.jibri.service.impl.StreamingJibriService.log() Stopped capturer
2021-09-26 02:54:06.944 INFO: [1194] org.jitsi.jibri.service.impl.StreamingJibriService.log() Quitting selenium
2021-09-26 02:54:06.944 INFO: [1194] org.jitsi.jibri.selenium.JibriSelenium.log() Leaving call and quitting browser
2021-09-26 02:54:06.944 INFO: [1194] org.jitsi.jibri.selenium.JibriSelenium.log() Recurring call status checks cancelled
2021-09-26 02:54:06.951 INFO: [1194] org.jitsi.jibri.selenium.JibriSelenium.log() Got 24 log entries for type browser
2021-09-26 02:54:07.101 INFO: [1194] org.jitsi.jibri.selenium.JibriSelenium.log() Got 4397 log entries for type driver
2021-09-26 02:54:07.319 INFO: [1194] org.jitsi.jibri.selenium.JibriSelenium.log() Got 0 log entries for type client
2021-09-26 02:54:07.320 INFO: [1194] org.jitsi.jibri.selenium.JibriSelenium.log() Leaving web call
2021-09-26 02:54:07.728 INFO: [1194] org.jitsi.jibri.selenium.JibriSelenium.log() Quitting chrome driver
2021-09-26 02:54:07.816 INFO: [1194] org.jitsi.jibri.selenium.JibriSelenium.log() Chrome driver quit
2021-09-26 02:54:07.816 INFO: [1194] org.jitsi.jibri.service.impl.StreamingJibriService.log() Quit selenium
2021-09-26 02:54:07.816 INFO: [1194] org.jitsi.jibri.status.JibriStatusManager.log() Busy status has changed: BUSY -> IDLE
2021-09-26 02:54:07.816 FINE: [1194] org.jitsi.jibri.webhooks.v1.WebhookClient.log() Updating 0 subscribers of status

I think I found issue. Issue looks like server ran out of memory.
i was using server with Jitsi and Jibri on same server which has 8Vcpu + 16 GB RAM.
usually it works fine, may be due to i am also recording streaming when its being streamed.

Very likely. You can confirm by running HTOP during the operation.