Jibri records a file but no audio no video

record file is only recprd upto 3o seconds then automatically recording failed.

Please stop creating multiple threads on the same issue. You’ve been getting assistance on this recording issue for some time now, no need to create several threads.

What are your server specs?

Architecture: x86_64
CPU op-mode(s): 32-bit, 64-bit
Byte Order: Little Endian
Address sizes: 46 bits physical, 48 bits virtual
CPU(s): 4
On-line CPU(s) list: 0-3
Thread(s) per core: 2
Core(s) per socket: 2
Socket(s): 1
NUMA node(s): 1
Vendor ID: GenuineIntel
CPU family: 6
Model: 85
Model name: Intel(R) Xeon(R) Platinum 8272CL CPU @ 2.60GHz
Stepping: 7
CPU MHz: 2593.906
BogoMIPS: 5187.81
Virtualization: VT-x
Hypervisor vendor: Microsoft
Virtualization type: full
L1d cache: 64 KiB
L1i cache: 64 KiB
L2 cache: 2 MiB
L3 cache: 35.8 MiB
NUMA node0 CPU(s): 0-3
Vulnerability Itlb multihit: KVM: Mitigation: VMX disabled
Vulnerability L1tf: Mitigation; PTE Inversion; VMX conditional cache flushes, SMT vulnerable
Vulnerability Mds: Mitigation; Clear CPU buffers; SMT Host state unknown
Vulnerability Meltdown: Mitigation; PTI
Vulnerability Spec store bypass: Vulnerable
Vulnerability Spectre v1: Mitigation; usercopy/swapgs barriers and __user pointer sanitization
Vulnerability Spectre v2: Mitigation; Full generic retpoline, STIBP disabled, RSB filling
Vulnerability Srbds: Not affected
Vulnerability Tsx async abort: Mitigation; Clear CPU buffers; SMT Host state unknown
Flags: fpu vme de pse tsc msr pae mce cx8 apic sep mtrr pge mca cmov pat pse36 clflush mmx fxsr sse sse2 ss ht syscall nx pdpe1gb rdtscp lm constant_tsc rep_good nopl
xtopology cpuid pni pclmulqdq vmx ssse3 fma cx16 pcid sse4_1 sse4_2 movbe popcnt aes xsave avx f16c rdrand hypervisor lahf_lm abm 3dnowprefetch invpcid_single
pti tpr_shadow vnmi ept vpid fsgsbase bmi1 hle avx2 smep bmi2 erms invpcid rtm mpx avx512f avx512dq rdseed adx smap clflushopt avx512cd avx512bw avx512vl xsav
eopt xsavec xsaves md_clear

How much RAM does the server have?
Do you have anything else hosted on the server besides Jibri?
Share your ffmpeg log.

2022-03-01 14:34:22.598 INFO: [59] LoggingUtils$Companion$OutputLogger$1$1.call#42: ffmpeg version 4.2.4-1ubuntu0.1 Copyright (c) 2000-2020 the FFmpeg developers
2022-03-01 14:34:22.598 INFO: [59] LoggingUtils$Companion$OutputLogger$1$1.call#42: built with gcc 9 (Ubuntu 9.3.0-10ubuntu2)
2022-03-01 14:34:22.673 INFO: [59] LoggingUtils$Companion$OutputLogger$1$1.call#42: configuration: --prefix=/usr --extra-version=1ubuntu0.1 --toolchain=hardened --libdir=/usr/lib/x86_64-linux-gnu --incdir=/usr/include/x86_64-linux-gnu --arch=amd64 --enable-gpl --disable-stripping --enable-avresample --disable-filter=resample --enable-avisynth --enable-gnutls --enable-ladspa --enable-libaom --enable-libass --enable-libbluray --enable-libbs2b --enable-libcaca --enable-libcdio --enable-libcodec2 --enable-libflite --enable-libfontconfig --enable-libfreetype --enable-libfribidi --enable-libgme --enable-libgsm --enable-libjack --enable-libmp3lame --enable-libmysofa --enable-libopenjpeg --enable-libopenmpt --enable-libopus --enable-libpulse --enable-librsvg --enable-librubberband --enable-libshine --enable-libsnappy --enable-libsoxr --enable-libspeex --enable-libssh --enable-libtheora --enable-libtwolame --enable-libvidstab --enable-libvorbis --enable-libvpx --enable-libwavpack --enable-libwebp --enable-libx265 --enable-libxml2 --enable-libxvid --enable-libzmq --enable-libzvbi --enable-lv2 --enable-omx --enable-openal --enable-opencl --enable-opengl --enable-sdl2 --enable-libdc1394 --enable-libdrm --enable-libiec61883 --enable-nvenc --enable-chromaprint --enable-frei0r --enable-libx264 --enable-shared
2022-03-01 14:34:22.673 INFO: [59] LoggingUtils$Companion$OutputLogger$1$1.call#42: libavutil 56. 31.100 / 56. 31.100
2022-03-01 14:34:22.673 INFO: [59] LoggingUtils$Companion$OutputLogger$1$1.call#42: libavcodec 58. 54.100 / 58. 54.100
2022-03-01 14:34:22.673 INFO: [59] LoggingUtils$Companion$OutputLogger$1$1.call#42: libavformat 58. 29.100 / 58. 29.100
2022-03-01 14:34:22.673 INFO: [59] LoggingUtils$Companion$OutputLogger$1$1.call#42: libavdevice 58. 8.100 / 58. 8.100
2022-03-01 14:34:22.673 INFO: [59] LoggingUtils$Companion$OutputLogger$1$1.call#42: libavfilter 7. 57.100 / 7. 57.100
2022-03-01 14:34:22.673 INFO: [59] LoggingUtils$Companion$OutputLogger$1$1.call#42: libavresample 4. 0. 0 / 4. 0. 0
2022-03-01 14:34:22.673 INFO: [59] LoggingUtils$Companion$OutputLogger$1$1.call#42: libswscale 5. 5.100 / 5. 5.100
2022-03-01 14:34:22.673 INFO: [59] LoggingUtils$Companion$OutputLogger$1$1.call#42: libswresample 3. 5.100 / 3. 5.100
2022-03-01 14:34:22.673 INFO: [59] LoggingUtils$Companion$OutputLogger$1$1.call#42: libpostproc 55. 5.100 / 55. 5.100
2022-03-01 14:34:22.674 INFO: [59] LoggingUtils$Companion$OutputLogger$1$1.call#42: [x11grab @ 0x5600908eee40] Stream #0: not enough frames to estimate rate; consider increasing probesize
2022-03-01 14:34:22.674 INFO: [59] LoggingUtils$Companion$OutputLogger$1$1.call#42: Input #0, x11grab, from ‘:0.0+0,0’:
2022-03-01 14:34:22.674 INFO: [59] LoggingUtils$Companion$OutputLogger$1$1.call#42: Duration: N/A, start: 1646145262.629348, bitrate: N/A
2022-03-01 14:34:22.674 INFO: [59] LoggingUtils$Companion$OutputLogger$1$1.call#42: Stream #0:0: Video: rawvideo (BGR[0] / 0x524742), bgr0, 1280x768, 30 fps, 1000k tbr, 1000k tbn, 1000k tbc
2022-03-01 14:34:22.685 INFO: [59] LoggingUtils$Companion$OutputLogger$1$1.call#42: Guessed Channel Layout for Input Stream #1.0 : stereo
2022-03-01 14:34:22.685 INFO: [59] LoggingUtils$Companion$OutputLogger$1$1.call#42: Input #1, alsa, from ‘plug:bsnoop’:
2022-03-01 14:34:22.685 INFO: [59] LoggingUtils$Companion$OutputLogger$1$1.call#42: Duration: N/A, start: 1646145262.292037, bitrate: 1536 kb/s
2022-03-01 14:34:22.685 INFO: [59] LoggingUtils$Companion$OutputLogger$1$1.call#42: Stream #1:0: Audio: pcm_s16le, 48000 Hz, stereo, s16, 1536 kb/s
2022-03-01 14:34:22.685 INFO: [59] LoggingUtils$Companion$OutputLogger$1$1.call#42: Stream mapping:
2022-03-01 14:34:22.685 INFO: [59] LoggingUtils$Companion$OutputLogger$1$1.call#42: Stream #0:0#0:0 (rawvideo (native) → h264 (libx264))
2022-03-01 14:34:22.685 INFO: [59] LoggingUtils$Companion$OutputLogger$1$1.call#42: Stream #1:0#0:1 (pcm_s16le (native) → aac (native))
2022-03-01 14:34:22.685 INFO: [59] LoggingUtils$Companion$OutputLogger$1$1.call#42: Press [q] to stop, [?] for help
2022-03-01 14:34:22.686 INFO: [59] LoggingUtils$Companion$OutputLogger$1$1.call#42: [libx264 @ 0x56009092cfc0] frame MB size (80x48) > level limit (3600)
2022-03-01 14:34:22.686 INFO: [59] LoggingUtils$Companion$OutputLogger$1$1.call#42: [libx264 @ 0x56009092cfc0] MB rate (115200) > level limit (108000)
2022-03-01 14:34:22.686 INFO: [59] LoggingUtils$Companion$OutputLogger$1$1.call#42: [libx264 @ 0x56009092cfc0] using cpu capabilities: MMX2 SSE2Fast SSSE3 SSE4.2 AVX FMA3 BMI2 AVX2 AVX512
2022-03-01 14:34:22.686 INFO: [59] LoggingUtils$Companion$OutputLogger$1$1.call#42: [libx264 @ 0x56009092cfc0] profile Main, level 3.1
2022-03-01 14:34:23.686 INFO: [59] LoggingUtils$Companion$OutputLogger$1$1.call#42: [libx264 @ 0x56009092cfc0] 264 - core 155 r2917 0a84d98 - H.264/MPEG-4 AVC codec - Copyleft 2003-2018 - x264, the best H.264/AVC encoder - VideoLAN - options: cabac=1 ref=1 deblock=1:0:0 analyse=0x1:0x111 me=hex subme=2 psy=1 psy_rd=1.00:0.00 mixed_ref=0 me_range=16 chroma_me=1 trellis=0 8x8dct=0 cqm=0 deadzone=21,11 fast_pskip=1 chroma_qp_offset=0 threads=4 lookahead_threads=4 sliced_threads=1 slices=4 nr=0 decimate=1 interlaced=0 bluray_compat=0 constrained_intra=0 bframes=0 weightp=1 keyint=60 keyint_min=6 scenecut=40 intra_refresh=0 rc=crf mbtree=0 crf=25.0 qcomp=0.60 qpmin=0 qpmax=69 qpstep=4 ip_ratio=1.40 aq=1:1.00
2022-03-01 14:34:23.686 INFO: [59] LoggingUtils$Companion$OutputLogger$1$1.call#42: Output #0, mp4, to ‘/srv/recordings/xcvvjzyvlpjoicvi/interiorschemesresemblenor_2022-03-01-14-34-19.mp4’:
2022-03-01 14:34:23.687 INFO: [59] LoggingUtils$Companion$OutputLogger$1$1.call#42: Metadata:
2022-03-01 14:34:23.687 INFO: [59] LoggingUtils$Companion$OutputLogger$1$1.call#42: encoder : Lavf58.29.100
2022-03-01 14:34:23.687 INFO: [59] LoggingUtils$Companion$OutputLogger$1$1.call#42: Stream #0:0: Video: h264 (libx264) (avc1 / 0x31637661), yuv420p(progressive), 1280x768, q=-1–1, 30 fps, 15360 tbn, 30 tbc
2022-03-01 14:34:23.687 INFO: [59] LoggingUtils$Companion$OutputLogger$1$1.call#42: Metadata:
2022-03-01 14:34:23.687 INFO: [59] LoggingUtils$Companion$OutputLogger$1$1.call#42: encoder : Lavc58.54.100 libx264
2022-03-01 14:34:23.687 INFO: [59] LoggingUtils$Companion$OutputLogger$1$1.call#42: Side data:
2022-03-01 14:34:23.687 INFO: [59] LoggingUtils$Companion$OutputLogger$1$1.call#42: cpb: bitrate max/min/avg: 0/0/0 buffer size: 0 vbv_delay: -1
2022-03-01 14:34:23.687 INFO: [59] LoggingUtils$Companion$OutputLogger$1$1.call#42: Stream #0:1: Audio: aac (LC) (mp4a / 0x6134706D), 44100 Hz, stereo, fltp, 128 kb/s
2022-03-01 14:34:23.687 INFO: [59] LoggingUtils$Companion$OutputLogger$1$1.call#42: Metadata:
2022-03-01 14:34:23.688 INFO: [59] LoggingUtils$Companion$OutputLogger$1$1.call#42: encoder : Lavc58.54.100 aac
2022-03-01 14:34:23.688 INFO: [59] LoggingUtils$Companion$OutputLogger$1$1.call#42: frame= 14 fps=0.0 q=21.0 size= 0kB time=00:00:00.44 bitrate= 0.9kbits/s speed=0.866x
2022-03-01 14:34:23.688 INFO: [59] LoggingUtils$Companion$OutputLogger$1$1.call#42: frame= 29 fps= 29 q=21.0 size= 0kB time=00:00:00.95 bitrate= 0.4kbits/s speed=0.942x
2022-03-01 14:34:24.688 INFO: [59] LoggingUtils$Companion$OutputLogger$1$1.call#42: frame= 44 fps= 29 q=21.0 size= 0kB time=00:00:01.43 bitrate= 0.3kbits/s speed=0.953x
2022-03-01 14:34:25.689 INFO: [59] LoggingUtils$Companion$OutputLogger$1$1.call#42: frame= 59 fps= 29 q=21.0 size= 0kB time=00:00:01.95 bitrate= 0.2kbits/s speed=0.965x
2022-03-01 14:34:25.689 INFO: [59] LoggingUtils$Companion$OutputLogger$1$1.call#42: frame= 74 fps= 29 q=21.0 size= 0kB time=00:00:02.46 bitrate= 0.2kbits/s speed=0.976x
2022-03-01 14:34:26.689 INFO: [59] LoggingUtils$Companion$OutputLogger$1$1.call#42: frame= 89 fps= 29 q=21.0 size= 0kB time=00:00:02.97 bitrate= 0.1kbits/s speed=0.983x
2022-03-01 14:34:26.689 INFO: [59] LoggingUtils$Companion$OutputLogger$1$1.call#42: frame= 105 fps= 30 q=21.0 size= 0kB time=00:00:03.46 bitrate= 0.1kbits/s speed=0.982x
2022-03-01 14:34:27.690 INFO: [59] LoggingUtils$Companion$OutputLogger$1$1.call#42: frame= 120 fps= 30 q=21.0 size= 0kB time=00:00:03.97 bitrate= 0.1kbits/s speed=0.984x
2022-03-01 14:34:27.690 INFO: [59] LoggingUtils$Companion$OutputLogger$1$1.call#42: frame= 135 fps= 30 q=21.0 size= 0kB time=00:00:04.48 bitrate= 0.1kbits/s speed=0.988x
2022-03-01 14:34:28.690 INFO: [59] LoggingUtils$Companion$OutputLogger$1$1.call#42: frame= 150 fps= 30 q=21.0 size= 0kB time=00:00:04.96 bitrate= 0.1kbits/s speed=0.985x
2022-03-01 14:34:28.690 INFO: [59] LoggingUtils$Companion$OutputLogger$1$1.call#42: frame= 165 fps= 30 q=21.0 size= 0kB time=00:00:05.47 bitrate= 0.1kbits/s speed=0.987x
2022-03-01 14:34:29.690 INFO: [59] LoggingUtils$Companion$OutputLogger$1$1.call#42: frame= 181 fps= 30 q=18.0 size= 0kB time=00:00:06.00 bitrate= 0.1kbits/s speed=0.99x
2022-03-01 14:34:29.691 INFO: [59] LoggingUtils$Companion$OutputLogger$1$1.call#42: frame= 196 fps= 30 q=21.0 size= 0kB time=00:00:06.50 bitrate= 0.1kbits/s speed=0.991x
2022-03-01 14:34:30.691 INFO: [59] LoggingUtils$Companion$OutputLogger$1$1.call#42: frame= 210 fps= 30 q=21.0 size= 0kB time=00:00:07.01 bitrate= 0.1kbits/s speed=0.992x
2022-03-01 14:34:30.691 INFO: [59] LoggingUtils$Companion$OutputLogger$1$1.call#42: frame= 226 fps= 30 q=21.0 size= 0kB time=00:00:07.52 bitrate= 0.1kbits/s speed=0.993x
2022-03-01 14:34:31.691 INFO: [59] LoggingUtils$Companion$OutputLogger$1$1.call#42: frame= 241 fps= 30 q=18.0 size= 0kB time=00:00:08.01 bitrate= 0.0kbits/s speed=0.992x
2022-03-01 14:34:31.692 INFO: [59] LoggingUtils$Companion$OutputLogger$1$1.call#42: frame= 256 fps= 30 q=21.0 size= 0kB time=00:00:08.52 bitrate= 0.0kbits/s speed=0.993x
2022-03-01 14:34:32.692 INFO: [59] LoggingUtils$Companion$OutputLogger$1$1.call#42: frame= 271 fps= 30 q=21.0 size= 0kB time=00:00:09.03 bitrate= 0.0kbits/s speed=0.994x
2022-03-01 14:34:32.692 INFO: [59] LoggingUtils$Companion$OutputLogger$1$1.call#42: frame= 286 fps= 30 q=21.0 size= 0kB time=00:00:09.52 bitrate= 0.0kbits/s speed=0.992x
2022-03-01 14:34:33.693 INFO: [59] LoggingUtils$Companion$OutputLogger$1$1.call#42: frame= 302 fps= 30 q=22.0 size= 0kB time=00:00:10.03 bitrate= 0.0kbits/s speed=0.994x
2022-03-01 14:34:33.693 INFO: [59] LoggingUtils$Companion$OutputLogger$1$1.call#42: frame= 317 fps= 30 q=21.0 size= 0kB time=00:00:10.54 bitrate= 0.0kbits/s speed=0.994x
2022-03-01 14:34:34.693 INFO: [59] LoggingUtils$Companion$OutputLogger$1$1.call#42: frame= 332 fps= 30 q=21.0 size= 0kB time=00:00:11.05 bitrate= 0.0kbits/s speed=0.995x
2022-03-01 14:34:34.693 INFO: [59] LoggingUtils$Companion$OutputLogger$1$1.call#42: frame= 347 fps= 30 q=21.0 size= 0kB time=00:00:11.54 bitrate= 0.0kbits/s speed=0.994x
2022-03-01 14:34:35.694 INFO: [59] LoggingUtils$Companion$OutputLogger$1$1.call#42: frame= 362 fps= 30 q=22.0 size= 0kB time=00:00:12.05 bitrate= 0.0kbits/s speed=0.995x
2022-03-01 14:34:35.694 INFO: [59] LoggingUtils$Companion$OutputLogger$1$1.call#42: frame= 378 fps= 30 q=21.0 size= 0kB time=00:00:12.56 bitrate= 0.0kbits/s speed=0.996x
2022-03-01 14:34:36.694 INFO: [59] LoggingUtils$Companion$OutputLogger$1$1.call#42: frame= 393 fps= 30 q=21.0 size= 0kB time=00:00:13.07 bitrate= 0.0kbits/s speed=0.996x
2022-03-01 14:34:36.694 INFO: [59] LoggingUtils$Companion$OutputLogger$1$1.call#42: frame= 408 fps= 30 q=21.0 size= 0kB time=00:00:13.56 bitrate= 0.0kbits/s speed=0.995x
2022-03-01 14:34:37.694 INFO: [59] LoggingUtils$Companion$OutputLogger$1$1.call#42: frame= 423 fps= 30 q=22.0 size= 0kB time=00:00:14.07 bitrate= 0.0kbits/s speed=0.995x
2022-03-01 14:34:37.695 INFO: [59] LoggingUtils$Companion$OutputLogger$1$1.call#42: frame= 438 fps= 30 q=21.0 size= 0kB time=00:00:14.58 bitrate= 0.0kbits/s speed=0.995x
2022-03-01 14:34:38.695 INFO: [59] LoggingUtils$Companion$OutputLogger$1$1.call#42: frame= 454 fps= 30 q=21.0 size= 0kB time=00:00:15.10 bitrate= 0.0kbits/s speed=0.996x
2022-03-01 14:34:38.696 INFO: [59] LoggingUtils$Companion$OutputLogger$1$1.call#42: frame= 469 fps= 30 q=21.0 size= 0kB time=00:00:15.60 bitrate= 0.0kbits/s speed=0.996x
2022-03-01 14:34:39.696 INFO: [59] LoggingUtils$Companion$OutputLogger$1$1.call#42: frame= 484 fps= 30 q=21.0 size= 0kB time=00:00:16.10 bitrate= 0.0kbits/s speed=0.996x
2022-03-01 14:34:39.696 INFO: [59] LoggingUtils$Companion$OutputLogger$1$1.call#42: frame= 499 fps= 30 q=21.0 size= 0kB time=00:00:16.62 bitrate= 0.0kbits/s speed=0.997x
2022-03-01 14:34:40.697 INFO: [59] LoggingUtils$Companion$OutputLogger$1$1.call#42: frame= 514 fps= 30 q=21.0 size= 0kB time=00:00:17.13 bitrate= 0.0kbits/s speed=0.997x
2022-03-01 14:34:40.697 INFO: [59] LoggingUtils$Companion$OutputLogger$1$1.call#42: frame= 530 fps= 30 q=21.0 size= 0kB time=00:00:17.63 bitrate= 0.0kbits/s speed=0.997x
2022-03-01 14:34:41.698 INFO: [59] LoggingUtils$Companion$OutputLogger$1$1.call#42: frame= 545 fps= 30 q=21.0 size= 0kB time=00:00:18.13 bitrate= 0.0kbits/s speed=0.997x
2022-03-01 14:34:41.698 INFO: [59] LoggingUtils$Companion$OutputLogger$1$1.call#42: frame= 560 fps= 30 q=21.0 size= 0kB time=00:00:18.64 bitrate= 0.0kbits/s speed=0.997x
2022-03-01 14:34:42.698 INFO: [59] LoggingUtils$Companion$OutputLogger$1$1.call#42: frame= 575 fps= 30 q=21.0 size= 0kB time=00:00:19.13 bitrate= 0.0kbits/s speed=0.997x
2022-03-01 14:34:42.698 INFO: [59] LoggingUtils$Companion$OutputLogger$1$1.call#42: frame= 590 fps= 30 q=21.0 size= 0kB time=00:00:19.64 bitrate= 0.0kbits/s speed=0.997x
2022-03-01 14:34:43.699 INFO: [59] LoggingUtils$Companion$OutputLogger$1$1.call#42: frame= 605 fps= 30 q=21.0 size= 0kB time=00:00:20.15 bitrate= 0.0kbits/s speed=0.997x
2022-03-01 14:34:43.700 INFO: [59] LoggingUtils$Companion$OutputLogger$1$1.call#42: frame= 620 fps= 30 q=21.0 size= 0kB time=00:00:20.64 bitrate= 0.0kbits/s speed=0.997x
2022-03-01 14:34:44.700 INFO: [59] LoggingUtils$Companion$OutputLogger$1$1.call#42: frame= 635 fps= 30 q=21.0 size= 0kB time=00:00:21.15 bitrate= 0.0kbits/s speed=0.997x
2022-03-01 14:34:44.700 INFO: [59] LoggingUtils$Companion$OutputLogger$1$1.call#42: frame= 650 fps= 30 q=21.0 size= 0kB time=00:00:21.66 bitrate= 0.0kbits/s speed=0.997x
2022-03-01 14:34:45.700 INFO: [59] LoggingUtils$Companion$OutputLogger$1$1.call#42: frame= 665 fps= 30 q=21.0 size= 0kB time=00:00:22.17 bitrate= 0.0kbits/s speed=0.998x
2022-03-01 14:34:45.701 INFO: [59] LoggingUtils$Companion$OutputLogger$1$1.call#42: frame= 681 fps= 30 q=21.0 size= 0kB time=00:00:22.66 bitrate= 0.0kbits/s speed=0.997x
2022-03-01 14:34:46.701 INFO: [59] LoggingUtils$Companion$OutputLogger$1$1.call#42: frame= 695 fps= 30 q=21.0 size= 0kB time=00:00:23.17 bitrate= 0.0kbits/s speed=0.998x
2022-03-01 14:34:46.701 INFO: [59] LoggingUtils$Companion$OutputLogger$1$1.call#42: frame= 711 fps= 30 q=21.0 size= 0kB time=00:00:23.66 bitrate= 0.0kbits/s speed=0.997x
2022-03-01 14:34:47.701 INFO: [59] LoggingUtils$Companion$OutputLogger$1$1.call#42: frame= 726 fps= 30 q=21.0 size= 0kB time=00:00:24.17 bitrate= 0.0kbits/s speed=0.998x
2022-03-01 14:34:47.702 INFO: [59] LoggingUtils$Companion$OutputLogger$1$1.call#42: frame= 741 fps= 30 q=21.0 size= 0kB time=00:00:24.68 bitrate= 0.0kbits/s speed=0.998x
2022-03-01 14:34:48.702 INFO: [59] LoggingUtils$Companion$OutputLogger$1$1.call#42: frame= 756 fps= 30 q=21.0 size= 0kB time=00:00:25.17 bitrate= 0.0kbits/s speed=0.997x
2022-03-01 14:34:48.702 INFO: [59] LoggingUtils$Companion$OutputLogger$1$1.call#42: frame= 771 fps= 30 q=21.0 size= 0kB time=00:00:25.68 bitrate= 0.0kbits/s speed=0.998x
2022-03-01 14:34:49.703 INFO: [59] LoggingUtils$Companion$OutputLogger$1$1.call#42: frame= 786 fps= 30 q=21.0 size= 0kB time=00:00:26.19 bitrate= 0.0kbits/s speed=0.998x
2022-03-01 14:34:49.703 INFO: [59] LoggingUtils$Companion$OutputLogger$1$1.call#42: frame= 801 fps= 30 q=21.0 size= 0kB time=00:00:26.67 bitrate= 0.0kbits/s speed=0.997x
2022-03-01 14:34:50.703 INFO: [59] LoggingUtils$Companion$OutputLogger$1$1.call#42: frame= 817 fps= 30 q=21.0 size= 0kB time=00:00:27.20 bitrate= 0.0kbits/s speed=0.998x
2022-03-01 14:34:50.703 INFO: [59] LoggingUtils$Companion$OutputLogger$1$1.call#42: frame= 831 fps= 30 q=21.0 size= 0kB time=00:00:27.67 bitrate= 0.0kbits/s speed=0.997x
2022-03-01 14:34:51.704 INFO: [59] LoggingUtils$Companion$OutputLogger$1$1.call#42: frame= 846 fps= 30 q=21.0 size= 0kB time=00:00:28.18 bitrate= 0.0kbits/s speed=0.997x
2022-03-01 14:34:51.704 INFO: [59] LoggingUtils$Companion$OutputLogger$1$1.call#42: frame= 862 fps= 30 q=21.0 size= 0kB time=00:00:28.70 bitrate= 0.0kbits/s speed=0.998x
2022-03-01 14:34:52.568 INFO: [59] LoggingUtils$Companion$OutputLogger$1$1.call#42: frame= 876 fps= 30 q=21.0 size= 0kB time=00:00:29.21 bitrate= 0.0kbits/s speed=0.998x
2022-03-01 14:34:52.568 INFO: [59] LoggingUtils$Companion$OutputLogger$1$1.call#42: frame= 892 fps= 30 q=21.0 size= 0kB time=00:00:29.72 bitrate= 0.0kbits/s speed=0.998x
2022-03-01 14:34:52.568 INFO: [59] LoggingUtils$Companion$OutputLogger$1$1.call#42: frame= 895 fps= 30 q=21.0 Lsize= 164kB time=00:00:29.83 bitrate= 45.1kbits/s speed=0.998x
2022-03-01 14:34:52.568 INFO: [59] LoggingUtils$Companion$OutputLogger$1$1.call#42: video:120kB audio:16kB subtitle:0kB other streams:0kB global headers:0kB muxing overhead: 21.113350%
2022-03-01 14:34:52.568 INFO: [59] LoggingUtils$Companion$OutputLogger$1$1.call#42: [libx264 @ 0x56009092cfc0] frame I:15 Avg QP: 3.50 size: 2782
2022-03-01 14:34:52.568 INFO: [59] LoggingUtils$Companion$OutputLogger$1$1.call#42: [libx264 @ 0x56009092cfc0] frame P:880 Avg QP: 6.07 size: 91
2022-03-01 14:34:52.568 INFO: [59] LoggingUtils$Companion$OutputLogger$1$1.call#42: [libx264 @ 0x56009092cfc0] mb I I16…4: 98.7% 0.0% 1.3%
2022-03-01 14:34:52.568 INFO: [59] LoggingUtils$Companion$OutputLogger$1$1.call#42: [libx264 @ 0x56009092cfc0] mb P I16…4: 0.0% 0.0% 0.0% P16…4: 0.0% 0.0% 0.0% 0.0% 0.0% skip:100.0%
2022-03-01 14:34:52.569 INFO: [59] LoggingUtils$Companion$OutputLogger$1$1.call#42: [libx264 @ 0x56009092cfc0] coded y,uvDC,uvAC intra: 0.8% 1.5% 1.4% inter: 0.0% 0.0% 0.0%
2022-03-01 14:34:52.569 INFO: [59] LoggingUtils$Companion$OutputLogger$1$1.call#42: [libx264 @ 0x56009092cfc0] i16 v,h,dc,p: 91% 0% 8% 0%
2022-03-01 14:34:52.569 INFO: [59] LoggingUtils$Companion$OutputLogger$1$1.call#42: [libx264 @ 0x56009092cfc0] i4 v,h,dc,ddl,ddr,vr,hd,vl,hu: 21% 20% 39% 4% 4% 3% 4% 2% 3%
2022-03-01 14:34:52.569 INFO: [59] LoggingUtils$Companion$OutputLogger$1$1.call#42: [libx264 @ 0x56009092cfc0] i8c dc,h,v,p: 99% 1% 0% 0%
2022-03-01 14:34:52.573 INFO: [59] LoggingUtils$Companion$OutputLogger$1$1.call#42: [libx264 @ 0x56009092cfc0] Weighted P-Frames: Y:0.0% UV:0.0%
2022-03-01 14:34:52.573 INFO: [59] LoggingUtils$Companion$OutputLogger$1$1.call#42: [libx264 @ 0x56009092cfc0] kb/s:32.78
2022-03-01 14:34:52.573 INFO: [59] LoggingUtils$Companion$OutputLogger$1$1.call#42: [aac @ 0x56009092e480] Qavg: 65281.879
2022-03-01 14:34:52.573 INFO: [59] LoggingUtils$Companion$OutputLogger$1$1.call#42: Exiting normally, received signal 2.
2022-03-01 14:36:20.525 INFO: [76] LoggingUtils$Companion$OutputLogger$1$1.call#42: ffmpeg version 4.2.4-1ubuntu0.1 Copyright (c) 2000-2020 the FFmpeg developers
2022-03-01 14:36:20.525 INFO: [76] LoggingUtils$Companion$OutputLogger$1$1.call#42: built with gcc 9 (Ubuntu 9.3.0-10ubuntu2)
2022-03-01 14:36:20.605 INFO: [76] LoggingUtils$Companion$OutputLogger$1$1.call#42: configuration: --prefix=/usr --extra-version=1ubuntu0.1 --toolchain=hardened --libdir=/usr/lib/x86_64-linux-gnu --incdir=/usr/include/x86_64-linux-gnu --arch=amd64 --enable-gpl --disable-stripping --enable-avresample --disable-filter=resample --enable-avisynth --enable-gnutls --enable-ladspa --enable-libaom --enable-libass --enable-libbluray --enable-libbs2b --enable-libcaca --enable-libcdio --enable-libcodec2 --enable-libflite --enable-libfontconfig --enable-libfreetype --enable-libfribidi --enable-libgme --enable-libgsm --enable-libjack --enable-libmp3lame --enable-libmysofa --enable-libopenjpeg --enable-libopenmpt --enable-libopus --enable-libpulse --enable-librsvg --enable-librubberband --enable-libshine --enable-libsnappy --enable-libsoxr --enable-libspeex --enable-libssh --enable-libtheora --enable-libtwolame --enable-libvidstab --enable-libvorbis --enable-libvpx --enable-libwavpack --enable-libwebp --enable-libx265 --enable-libxml2 --enable-libxvid --enable-libzmq --enable-libzvbi --enable-lv2 --enable-omx --enable-openal --enable-opencl --enable-opengl --enable-sdl2 --enable-libdc1394 --enable-libdrm --enable-libiec61883 --enable-nvenc --enable-chromaprint --enable-frei0r --enable-libx264 --enable-shared
2022-03-01 14:36:20.605 INFO: [76] LoggingUtils$Companion$OutputLogger$1$1.call#42: libavutil 56. 31.100 / 56. 31.100
2022-03-01 14:36:20.605 INFO: [76] LoggingUtils$Companion$OutputLogger$1$1.call#42: libavcodec 58. 54.100 / 58. 54.100
2022-03-01 14:36:20.605 INFO: [76] LoggingUtils$Companion$OutputLogger$1$1.call#42: libavformat 58. 29.100 / 58. 29.100
2022-03-01 14:36:20.605 INFO: [76] LoggingUtils$Companion$OutputLogger$1$1.call#42: libavdevice 58. 8.100 / 58. 8.100
2022-03-01 14:36:20.605 INFO: [76] LoggingUtils$Companion$OutputLogger$1$1.call#42: libavfilter 7. 57.100 / 7. 57.100
2022-03-01 14:36:20.605 INFO: [76] LoggingUtils$Companion$OutputLogger$1$1.call#42: libavresample 4. 0. 0 / 4. 0. 0
2022-03-01 14:36:20.605 INFO: [76] LoggingUtils$Companion$OutputLogger$1$1.call#42: libswscale 5. 5.100 / 5. 5.100
2022-03-01 14:36:20.605 INFO: [76] LoggingUtils$Companion$OutputLogger$1$1.call#42: libswresample 3. 5.100 / 3. 5.100
2022-03-01 14:36:20.605 INFO: [76] LoggingUtils$Companion$OutputLogger$1$1.call#42: libpostproc 55. 5.100 / 55. 5.100
2022-03-01 14:36:20.605 INFO: [76] LoggingUtils$Companion$OutputLogger$1$1.call#42: [x11grab @ 0x55caa4b8de40] Stream #0: not enough frames to estimate rate; consider increasing probesize
2022-03-01 14:36:20.605 INFO: [76] LoggingUtils$Companion$OutputLogger$1$1.call#42: Input #0, x11grab, from ‘:0.0+0,0’:
2022-03-01 14:36:20.605 INFO: [76] LoggingUtils$Companion$OutputLogger$1$1.call#42: Duration: N/A, start: 1646145380.562264, bitrate: N/A
2022-03-01 14:36:20.605 INFO: [76] LoggingUtils$Companion$OutputLogger$1$1.call#42: Stream #0:0: Video: rawvideo (BGR[0] / 0x524742), bgr0, 1280x768, 30 fps, 1000k tbr, 1000k tbn, 1000k tbc
2022-03-01 14:36:20.614 INFO: [76] LoggingUtils$Companion$OutputLogger$1$1.call#42: Guessed Channel Layout for Input Stream #1.0 : stereo
2022-03-01 14:36:20.614 INFO: [76] LoggingUtils$Companion$OutputLogger$1$1.call#42: Input #1, alsa, from ‘plug:bsnoop’:
2022-03-01 14:36:20.614 INFO: [76] LoggingUtils$Companion$OutputLogger$1$1.call#42: Duration: N/A, start: 1646145380.224031, bitrate: 1536 kb/s
2022-03-01 14:36:20.614 INFO: [76] LoggingUtils$Companion$OutputLogger$1$1.call#42: Stream #1:0: Audio: pcm_s16le, 48000 Hz, stereo, s16, 1536 kb/s
2022-03-01 14:36:20.614 INFO: [76] LoggingUtils$Companion$OutputLogger$1$1.call#42: Stream mapping:
2022-03-01 14:36:20.614 INFO: [76] LoggingUtils$Companion$OutputLogger$1$1.call#42: Stream #0:0#0:0 (rawvideo (native) → h264 (libx264))
2022-03-01 14:36:20.614 INFO: [76] LoggingUtils$Companion$OutputLogger$1$1.call#42: Stream #1:0#0:1 (pcm_s16le (native) → aac (native))
2022-03-01 14:36:20.614 INFO: [76] LoggingUtils$Companion$OutputLogger$1$1.call#42: Press [q] to stop, [?] for help
2022-03-01 14:36:20.614 INFO: [76] LoggingUtils$Companion$OutputLogger$1$1.call#42: [libx264 @ 0x55caa4bcbfc0] frame MB size (80x48) > level limit (3600)
2022-03-01 14:36:20.615 INFO: [76] LoggingUtils$Companion$OutputLogger$1$1.call#42: [libx264 @ 0x55caa4bcbfc0] MB rate (115200) > level limit (108000)
2022-03-01 14:36:20.615 INFO: [76] LoggingUtils$Companion$OutputLogger$1$1.call#42: [libx264 @ 0x55caa4bcbfc0] using cpu capabilities: MMX2 SSE2Fast SSSE3 SSE4.2 AVX FMA3 BMI2 AVX2 AVX512
2022-03-01 14:36:20.615 INFO: [76] LoggingUtils$Companion$OutputLogger$1$1.call#42: [libx264 @ 0x55caa4bcbfc0] profile Main, level 3.1
2022-03-01 14:36:21.615 INFO: [76] LoggingUtils$Companion$OutputLogger$1$1.call#42: [libx264 @ 0x55caa4bcbfc0] 264 - core 155 r2917 0a84d98 - H.264/MPEG-4 AVC codec - Copyleft 2003-2018 - x264, the best H.264/AVC encoder - VideoLAN - options: cabac=1 ref=1 deblock=1:0:0 analyse=0x1:0x111 me=hex subme=2 psy=1 psy_rd=1.00:0.00 mixed_ref=0 me_range=16 chroma_me=1 trellis=0 8x8dct=0 cqm=0 deadzone=21,11 fast_pskip=1 chroma_qp_offset=0 threads=4 lookahead_threads=4 sliced_threads=1 slices=4 nr=0 decimate=1 interlaced=0 bluray_compat=0 constrained_intra=0 bframes=0 weightp=1 keyint=60 keyint_min=6 scenecut=40 intra_refresh=0 rc=crf mbtree=0 crf=25.0 qcomp=0.60 qpmin=0 qpmax=69 qpstep=4 ip_ratio=1.40 aq=1:1.00
2022-03-01 14:36:21.615 INFO: [76] LoggingUtils$Companion$OutputLogger$1$1.call#42: Output #0, mp4, to ‘/srv/recordings/pcrcbckqwplowylt/interiorschemesresemblenor_2022-03-01-14-36-17.mp4’:
2022-03-01 14:36:21.615 INFO: [76] LoggingUtils$Companion$OutputLogger$1$1.call#42: Metadata:
2022-03-01 14:36:21.615 INFO: [76] LoggingUtils$Companion$OutputLogger$1$1.call#42: encoder : Lavf58.29.100
2022-03-01 14:36:21.615 INFO: [76] LoggingUtils$Companion$OutputLogger$1$1.call#42: Stream #0:0: Video: h264 (libx264) (avc1 / 0x31637661), yuv420p(progressive), 1280x768, q=-1–1, 30 fps, 15360 tbn, 30 tbc
2022-03-01 14:36:21.615 INFO: [76] LoggingUtils$Companion$OutputLogger$1$1.call#42: Metadata:
2022-03-01 14:36:21.615 INFO: [76] LoggingUtils$Companion$OutputLogger$1$1.call#42: encoder : Lavc58.54.100 libx264
2022-03-01 14:36:21.615 INFO: [76] LoggingUtils$Companion$OutputLogger$1$1.call#42: Side data:
2022-03-01 14:36:21.615 INFO: [76] LoggingUtils$Companion$OutputLogger$1$1.call#42: cpb: bitrate max/min/avg: 0/0/0 buffer size: 0 vbv_delay: -1
2022-03-01 14:36:21.615 INFO: [76] LoggingUtils$Companion$OutputLogger$1$1.call#42: Stream #0:1: Audio: aac (LC) (mp4a / 0x6134706D), 44100 Hz, stereo, fltp, 128 kb/s
2022-03-01 14:36:21.615 INFO: [76] LoggingUtils$Companion$OutputLogger$1$1.call#42: Metadata:
2022-03-01 14:36:21.615 INFO: [76] LoggingUtils$Companion$OutputLogger$1$1.call#42: encoder : Lavc58.54.100 aac
2022-03-01 14:36:21.615 INFO: [76] LoggingUtils$Companion$OutputLogger$1$1.call#42: frame= 14 fps=0.0 q=21.0 size= 0kB time=00:00:00.44 bitrate= 0.9kbits/s speed=0.879x
2022-03-01 14:36:21.615 INFO: [76] LoggingUtils$Companion$OutputLogger$1$1.call#42: frame= 29 fps= 29 q=21.0 size= 0kB time=00:00:00.95 bitrate= 0.4kbits/s speed=0.943x
2022-03-01 14:36:22.616 INFO: [76] LoggingUtils$Companion$OutputLogger$1$1.call#42: frame= 44 fps= 29 q=21.0 size= 0kB time=00:00:01.46 bitrate= 0.3kbits/s speed=0.965x
2022-03-01 14:36:23.616 INFO: [76] LoggingUtils$Companion$OutputLogger$1$1.call#42: frame= 59 fps= 29 q=21.0 size= 0kB time=00:00:01.97 bitrate= 0.2kbits/s speed=0.976x
2022-03-01 14:36:23.616 INFO: [76] LoggingUtils$Companion$OutputLogger$1$1.call#42: frame= 75 fps= 30 q=21.0 size= 0kB time=00:00:02.46 bitrate= 0.2kbits/s speed=0.976x
2022-03-01 14:36:24.616 INFO: [76] LoggingUtils$Companion$OutputLogger$1$1.call#42: frame= 90 fps= 30 q=21.0 size= 0kB time=00:00:02.97 bitrate= 0.1kbits/s speed=0.98x
2022-03-01 14:36:24.616 INFO: [76] LoggingUtils$Companion$OutputLogger$1$1.call#42: frame= 105 fps= 30 q=21.0 size= 0kB time=00:00:03.48 bitrate= 0.1kbits/s speed=0.985x
2022-03-01 14:36:25.617 INFO: [76] LoggingUtils$Companion$OutputLogger$1$1.call#42: frame= 120 fps= 30 q=21.0 size= 0kB time=00:00:03.97 bitrate= 0.1kbits/s speed=0.983x
2022-03-01 14:36:25.617 INFO: [76] LoggingUtils$Companion$OutputLogger$1$1.call#42: frame= 135 fps= 30 q=21.0 size= 0kB time=00:00:04.48 bitrate= 0.1kbits/s speed=0.986x
2022-03-01 14:36:26.617 INFO: [76] LoggingUtils$Companion$OutputLogger$1$1.call#42: frame= 151 fps= 30 q=21.0 size= 0kB time=00:00:05.00 bitrate= 0.1kbits/s speed=0.991x
2022-03-01 14:36:26.617 INFO: [76] LoggingUtils$Companion$OutputLogger$1$1.call#42: frame= 165 fps= 30 q=21.0 size= 0kB time=00:00:05.47 bitrate= 0.1kbits/s speed=0.986x
2022-03-01 14:36:27.617 INFO: [76] LoggingUtils$Companion$OutputLogger$1$1.call#42: frame= 181 fps= 30 q=18.0 size= 0kB time=00:00:06.00 bitrate= 0.1kbits/s speed=0.99x
2022-03-01 14:36:27.617 INFO: [76] LoggingUtils$Companion$OutputLogger$1$1.call#42: frame= 196 fps= 30 q=21.0 size= 0kB time=00:00:06.50 bitrate= 0.1kbits/s speed=0.99x
2022-03-01 14:36:28.618 INFO: [76] LoggingUtils$Companion$OutputLogger$1$1.call#42: frame= 211 fps= 30 q=21.0 size= 0kB time=00:00:07.01 bitrate= 0.1kbits/s speed=0.992x
2022-03-01 14:36:28.618 INFO: [76] LoggingUtils$Companion$OutputLogger$1$1.call#42: frame= 226 fps= 30 q=21.0 size= 0kB time=00:00:07.50 bitrate= 0.1kbits/s speed=0.991x
2022-03-01 14:36:29.618 INFO: [76] LoggingUtils$Companion$OutputLogger$1$1.call#42: frame= 241 fps= 30 q=18.0 size= 0kB time=00:00:08.01 bitrate= 0.0kbits/s speed=0.992x
2022-03-01 14:36:29.618 INFO: [76] LoggingUtils$Companion$OutputLogger$1$1.call#42: frame= 256 fps= 30 q=21.0 size= 0kB time=00:00:08.52 bitrate= 0.0kbits/s speed=0.993x
2022-03-01 14:36:30.619 INFO: [76] LoggingUtils$Companion$OutputLogger$1$1.call#42: frame= 271 fps= 30 q=21.0 size= 0kB time=00:00:09.03 bitrate= 0.0kbits/s speed=0.994x
2022-03-01 14:36:30.619 INFO: [76] LoggingUtils$Companion$OutputLogger$1$1.call#42: frame= 286 fps= 30 q=21.0 size= 0kB time=00:00:09.54 bitrate= 0.0kbits/s speed=0.995x
2022-03-01 14:36:31.619 INFO: [76] LoggingUtils$Companion$OutputLogger$1$1.call#42: frame= 302 fps= 30 q=22.0 size= 0kB time=00:00:10.03 bitrate= 0.0kbits/s speed=0.994x
2022-03-01 14:36:31.619 INFO: [76] LoggingUtils$Companion$OutputLogger$1$1.call#42: frame= 316 fps= 30 q=21.0 size= 0kB time=00:00:10.54 bitrate= 0.0kbits/s speed=0.994x
2022-03-01 14:36:32.619 INFO: [76] LoggingUtils$Companion$OutputLogger$1$1.call#42: frame= 332 fps= 30 q=21.0 size= 0kB time=00:00:11.05 bitrate= 0.0kbits/s speed=0.995x
2022-03-01 14:36:32.619 INFO: [76] LoggingUtils$Companion$OutputLogger$1$1.call#42: frame= 347 fps= 30 q=21.0 size= 0kB time=00:00:11.56 bitrate= 0.0kbits/s speed=0.996x
2022-03-01 14:36:33.620 INFO: [76] LoggingUtils$Companion$OutputLogger$1$1.call#42: frame= 362 fps= 30 q=22.0 size= 0kB time=00:00:12.05 bitrate= 0.0kbits/s speed=0.995x
2022-03-01 14:36:33.620 INFO: [76] LoggingUtils$Companion$OutputLogger$1$1.call#42: frame= 377 fps= 30 q=21.0 size= 0kB time=00:00:12.56 bitrate= 0.0kbits/s speed=0.995x
2022-03-01 14:36:34.620 INFO: [76] LoggingUtils$Companion$OutputLogger$1$1.call#42: frame= 392 fps= 30 q=21.0 size= 0kB time=00:00:13.07 bitrate= 0.0kbits/s speed=0.996x
2022-03-01 14:36:34.620 INFO: [76] LoggingUtils$Companion$OutputLogger$1$1.call#42: frame= 408 fps= 30 q=21.0 size= 0kB time=00:00:13.56 bitrate= 0.0kbits/s speed=0.995x
2022-03-01 14:36:35.620 INFO: [76] LoggingUtils$Companion$OutputLogger$1$1.call#42: frame= 423 fps= 30 q=21.0 size= 0kB time=00:00:14.07 bitrate= 0.0kbits/s speed=0.996x
2022-03-01 14:36:35.620 INFO: [76] LoggingUtils$Companion$OutputLogger$1$1.call#42: frame= 438 fps= 30 q=21.0 size= 0kB time=00:00:14.56 bitrate= 0.0kbits/s speed=0.995x
2022-03-01 14:36:36.621 INFO: [76] LoggingUtils$Companion$OutputLogger$1$1.call#42: frame= 453 fps= 30 q=21.0 size= 0kB time=00:00:15.06 bitrate= 0.0kbits/s speed=0.996x
2022-03-01 14:36:36.621 INFO: [76] LoggingUtils$Companion$OutputLogger$1$1.call#42: frame= 468 fps= 30 q=21.0 size= 0kB time=00:00:15.58 bitrate= 0.0kbits/s speed=0.996x
2022-03-01 14:36:37.621 INFO: [76] LoggingUtils$Companion$OutputLogger$1$1.call#42: frame= 483 fps= 30 q=21.0 size= 0kB time=00:00:16.09 bitrate= 0.0kbits/s speed=0.997x
2022-03-01 14:36:37.621 INFO: [76] LoggingUtils$Companion$OutputLogger$1$1.call#42: frame= 498 fps= 30 q=21.0 size= 0kB time=00:00:16.60 bitrate= 0.0kbits/s speed=0.997x
2022-03-01 14:36:38.621 INFO: [76] LoggingUtils$Companion$OutputLogger$1$1.call#42: frame= 514 fps= 30 q=21.0 size= 0kB time=00:00:17.11 bitrate= 0.0kbits/s speed=0.997x
2022-03-01 14:36:38.622 INFO: [76] LoggingUtils$Companion$OutputLogger$1$1.call#42: frame= 529 fps= 30 q=21.0 size= 0kB time=00:00:17.60 bitrate= 0.0kbits/s speed=0.996x
2022-03-01 14:36:39.622 INFO: [76] LoggingUtils$Companion$OutputLogger$1$1.call#42: frame= 543 fps= 30 q=21.0 size= 0kB time=00:00:18.11 bitrate= 0.0kbits/s speed=0.997x
2022-03-01 14:36:39.622 INFO: [76] LoggingUtils$Companion$OutputLogger$1$1.call#42: frame= 559 fps= 30 q=21.0 size= 0kB time=00:00:18.62 bitrate= 0.0kbits/s speed=0.997x
2022-03-01 14:36:40.622 INFO: [76] LoggingUtils$Companion$OutputLogger$1$1.call#42: frame= 574 fps= 30 q=21.0 size= 0kB time=00:00:19.11 bitrate= 0.0kbits/s speed=0.996x
2022-03-01 14:36:40.622 INFO: [76] LoggingUtils$Companion$OutputLogger$1$1.call#42: frame= 589 fps= 30 q=21.0 size= 0kB time=00:00:19.62 bitrate= 0.0kbits/s speed=0.997x
2022-03-01 14:36:41.622 INFO: [76] LoggingUtils$Companion$OutputLogger$1$1.call#42: frame= 605 fps= 30 q=21.0 size= 0kB time=00:00:20.13 bitrate= 0.0kbits/s speed=0.997x
2022-03-01 14:36:41.623 INFO: [76] LoggingUtils$Companion$OutputLogger$1$1.call#42: frame= 619 fps= 30 q=21.0 size= 0kB time=00:00:20.64 bitrate= 0.0kbits/s speed=0.997x
2022-03-01 14:36:42.623 INFO: [76] LoggingUtils$Companion$OutputLogger$1$1.call#42: frame= 635 fps= 30 q=21.0 size= 0kB time=00:00:21.13 bitrate= 0.0kbits/s speed=0.997x
2022-03-01 14:36:42.623 INFO: [76] LoggingUtils$Companion$OutputLogger$1$1.call#42: frame= 650 fps= 30 q=21.0 size= 0kB time=00:00:21.64 bitrate= 0.0kbits/s speed=0.997x
2022-03-01 14:36:43.623 INFO: [76] LoggingUtils$Companion$OutputLogger$1$1.call#42: frame= 665 fps= 30 q=21.0 size= 0kB time=00:00:22.15 bitrate= 0.0kbits/s speed=0.997x
2022-03-01 14:36:43.623 INFO: [76] LoggingUtils$Companion$OutputLogger$1$1.call#42: frame= 680 fps= 30 q=21.0 size= 0kB time=00:00:22.66 bitrate= 0.0kbits/s speed=0.998x
2022-03-01 14:36:44.624 INFO: [76] LoggingUtils$Companion$OutputLogger$1$1.call#42: frame= 695 fps= 30 q=21.0 size= 0kB time=00:00:23.15 bitrate= 0.0kbits/s speed=0.997x
2022-03-01 14:36:44.625 INFO: [76] LoggingUtils$Companion$OutputLogger$1$1.call#42: frame= 711 fps= 30 q=21.0 size= 0kB time=00:00:23.66 bitrate= 0.0kbits/s speed=0.998x
2022-03-01 14:36:45.625 INFO: [76] LoggingUtils$Companion$OutputLogger$1$1.call#42: frame= 725 fps= 30 q=21.0 size= 0kB time=00:00:24.17 bitrate= 0.0kbits/s speed=0.998x
2022-03-01 14:36:45.625 INFO: [76] LoggingUtils$Companion$OutputLogger$1$1.call#42: frame= 741 fps= 30 q=21.0 size= 0kB time=00:00:24.68 bitrate= 0.0kbits/s speed=0.998x
2022-03-01 14:36:46.626 INFO: [76] LoggingUtils$Companion$OutputLogger$1$1.call#42: frame= 756 fps= 30 q=21.0 size= 0kB time=00:00:25.17 bitrate= 0.0kbits/s speed=0.997x
2022-03-01 14:36:46.626 INFO: [76] LoggingUtils$Companion$OutputLogger$1$1.call#42: frame= 771 fps= 30 q=21.0 size= 0kB time=00:00:25.68 bitrate= 0.0kbits/s speed=0.998x
2022-03-01 14:36:47.626 INFO: [76] LoggingUtils$Companion$OutputLogger$1$1.call#42: frame= 786 fps= 30 q=21.0 size= 0kB time=00:00:26.19 bitrate= 0.0kbits/s speed=0.998x
2022-03-01 14:36:47.626 INFO: [76] LoggingUtils$Companion$OutputLogger$1$1.call#42: frame= 801 fps= 30 q=21.0 size= 0kB time=00:00:26.67 bitrate= 0.0kbits/s speed=0.997x
2022-03-01 14:36:48.626 INFO: [76] LoggingUtils$Companion$OutputLogger$1$1.call#42: frame= 817 fps= 30 q=21.0 size= 0kB time=00:00:27.20 bitrate= 0.0kbits/s speed=0.998x
2022-03-01 14:36:48.626 INFO: [76] LoggingUtils$Companion$OutputLogger$1$1.call#42: frame= 832 fps= 30 q=21.0 size= 0kB time=00:00:27.70 bitrate= 0.0kbits/s speed=0.998x
2022-03-01 14:36:49.627 INFO: [76] LoggingUtils$Companion$OutputLogger$1$1.call#42: frame= 846 fps= 30 q=21.0 size= 0kB time=00:00:28.21 bitrate= 0.0kbits/s speed=0.998x
2022-03-01 14:36:49.627 INFO: [76] LoggingUtils$Companion$OutputLogger$1$1.call#42: frame= 862 fps= 30 q=21.0 size= 0kB time=00:00:28.70 bitrate= 0.0kbits/s speed=0.998x
2022-03-01 14:36:50.477 INFO: [76] LoggingUtils$Companion$OutputLogger$1$1.call#42: frame= 876 fps= 30 q=21.0 size= 0kB time=00:00:29.21 bitrate= 0.0kbits/s speed=0.998x
2022-03-01 14:36:50.477 INFO: [76] LoggingUtils$Companion$OutputLogger$1$1.call#42: frame= 892 fps= 30 q=21.0 size= 0kB time=00:00:29.72 bitrate= 0.0kbits/s speed=0.998x
2022-03-01 14:36:50.477 INFO: [76] LoggingUtils$Companion$OutputLogger$1$1.call#42: frame= 894 fps= 30 q=21.0 Lsize= 165kB time=00:00:29.81 bitrate= 45.3kbits/s speed=0.998x
2022-03-01 14:36:50.477 INFO: [76] LoggingUtils$Companion$OutputLogger$1$1.call#42: video:121kB audio:16kB subtitle:0kB other streams:0kB global headers:0kB muxing overhead: 20.990582%
2022-03-01 14:36:50.477 INFO: [76] LoggingUtils$Companion$OutputLogger$1$1.call#42: [libx264 @ 0x55caa4bcbfc0] frame I:15 Avg QP: 3.53 size: 3015
2022-03-01 14:36:50.477 INFO: [76] LoggingUtils$Companion$OutputLogger$1$1.call#42: [libx264 @ 0x55caa4bcbfc0] frame P:879 Avg QP: 6.06 size: 88
2022-03-01 14:36:50.477 INFO: [76] LoggingUtils$Companion$OutputLogger$1$1.call#42: [libx264 @ 0x55caa4bcbfc0] mb I I16…4: 98.6% 0.0% 1.4%
2022-03-01 14:36:50.477 INFO: [76] LoggingUtils$Companion$OutputLogger$1$1.call#42: [libx264 @ 0x55caa4bcbfc0] mb P I16…4: 0.0% 0.0% 0.0% P16…4: 0.0% 0.0% 0.0% 0.0% 0.0% skip:100.0%
2022-03-01 14:36:50.477 INFO: [76] LoggingUtils$Companion$OutputLogger$1$1.call#42: [libx264 @ 0x55caa4bcbfc0] coded y,uvDC,uvAC intra: 0.8% 1.5% 1.4% inter: 0.0% 0.0% 0.0%
2022-03-01 14:36:50.477 INFO: [76] LoggingUtils$Companion$OutputLogger$1$1.call#42: [libx264 @ 0x55caa4bcbfc0] i16 v,h,dc,p: 91% 0% 8% 0%
2022-03-01 14:36:50.477 INFO: [76] LoggingUtils$Companion$OutputLogger$1$1.call#42: [libx264 @ 0x55caa4bcbfc0] i4 v,h,dc,ddl,ddr,vr,hd,vl,hu: 22% 20% 39% 4% 4% 3% 4% 2% 3%
2022-03-01 14:36:50.477 INFO: [76] LoggingUtils$Companion$OutputLogger$1$1.call#42: [libx264 @ 0x55caa4bcbfc0] i8c dc,h,v,p: 99% 1% 0% 0%
2022-03-01 14:36:50.482 INFO: [76] LoggingUtils$Companion$OutputLogger$1$1.call#42: [libx264 @ 0x55caa4bcbfc0] Weighted P-Frames: Y:0.0% UV:0.0%
2022-03-01 14:36:50.482 INFO: [76] LoggingUtils$Companion$OutputLogger$1$1.call#42: [libx264 @ 0x55caa4bcbfc0] kb/s:32.99
2022-03-01 14:36:50.482 INFO: [76] LoggingUtils$Companion$OutputLogger$1$1.call#42: [aac @ 0x55caa4bcd480] Qavg: 65343.621
2022-03-01 14:36:50.482 INFO: [76] LoggingUtils$Companion$OutputLogger$1$1.call#42: Exiting normally, received signal 2.

Still no audio no video. I don’t understand why connection is lost of participant even its is connected in conference room when recording is started then no camera no mic is working