Jibri fails to record with pulseuadio

I have configured Jibri to use pulseaudio to record using this command:

2021-01-28 09:52:53.738 INFO: [64] org.jitsi.jibri.util.JibriSubprocess.ffmpeg.launch() Starting ffmpeg with command ffmpeg -y -v info -f x11grab -draw_mouse 0 -r 30 -s 1920x1080 -thread_queue_size 4096 -i :0.0+0,0 -f pulse -thread_queue_size 4096 -i default -acodec aac -strict -2 -ar 44100 -b:a 128k -af aresample=async=1 -c:v libx264 -preset veryfast -profile:v main -level 3.1 -pix_fmt yuv420p -r 30 -crf 25 -g 60 -tune zerolatency -f mp4 /config/recordings/ejnjsbbcgsfiqmwx/eastbirthdaysweakenall_2021-01-28-09-52-49.mp4 ([ffmpeg, -y, -v, info, -f, x11grab, -draw_mouse, 0, -r, 30, -s, 1920x1080, -thread_queue_size, 4096, -i, :0.0+0,0, -f, pulse, -thread_queue_size, 4096, -i, default, -acodec, aac, -strict, -2, -ar, 44100, -b:a, 128k, -af, aresample=async=1, -c:v, libx264, -preset, veryfast, -profile:v, main, -level, 3.1, -pix_fmt, yuv420p, -r, 30, -crf, 25, -g, 60, -tune, zerolatency, -f, mp4, /config/recordings/ejnjsbbcgsfiqmwx/eastbirthdaysweakenall_2021-01-28-09-52-49.mp4])

Audio is fine but i can only see the icewm windows manager.

I cant upload the video but here is the ffmpeg log:

2021-01-28 09:52:53.851 INFO: [68] ffmpeg.call() ffmpeg version 4.1.6-1~deb10u1 Copyright © 2000-2020 the FFmpeg developers
2021-01-28 09:52:53.851 INFO: [68] ffmpeg.call() built with gcc 8 (Debian 8.3.0-6)
2021-01-28 09:52:53.943 INFO: [68] ffmpeg.call() configuration: --prefix=/usr --extra-version=‘1~deb10u1’ --toolchain=hardened --libdir=/usr/lib/x86_64-linux-gnu --incdir=/usr/include/x86_64-linux-gnu --arch=amd64 --enable-gpl --disable-stripping --enable-avresample --disable-filter=resample --enable-avisynth --enable-gnutls --enable-ladspa --enable-libaom --enable-libass --enable-libbluray --enable-libbs2b --enable-libcaca --enable-libcdio --enable-libcodec2 --enable-libflite --enable-libfontconfig --enable-libfreetype --enable-libfribidi --enable-libgme --enable-libgsm --enable-libjack --enable-libmp3lame --enable-libmysofa --enable-libopenjpeg --enable-libopenmpt --enable-libopus --enable-libpulse --enable-librsvg --enable-librubberband --enable-libshine --enable-libsnappy --enable-libsoxr --enable-libspeex --enable-libssh --enable-libtheora --enable-libtwolame --enable-libvidstab --enable-libvorbis --enable-libvpx --enable-libwavpack --enable-libwebp --enable-libx265 --enable-libxml2 --enable-libxvid --enable-libzmq --enable-libzvbi --enable-lv2 --enable-omx --enable-openal --enable-opengl --enable-sdl2 --enable-libdc1394 --enable-libdrm --enable-libiec61883 --enable-chromaprint --enable-frei0r --enable-libx264 --enable-shared
2021-01-28 09:52:53.943 INFO: [68] ffmpeg.call() libavutil 56. 22.100 / 56. 22.100
2021-01-28 09:52:53.943 INFO: [68] ffmpeg.call() libavcodec 58. 35.100 / 58. 35.100
2021-01-28 09:52:53.943 INFO: [68] ffmpeg.call() libavformat 58. 20.100 / 58. 20.100
2021-01-28 09:52:53.943 INFO: [68] ffmpeg.call() libavdevice 58. 5.100 / 58. 5.100
2021-01-28 09:52:53.943 INFO: [68] ffmpeg.call() libavfilter 7. 40.101 / 7. 40.101
2021-01-28 09:52:53.943 INFO: [68] ffmpeg.call() libavresample 4. 0. 0 / 4. 0. 0
2021-01-28 09:52:53.943 INFO: [68] ffmpeg.call() libswscale 5. 3.100 / 5. 3.100
2021-01-28 09:52:53.943 INFO: [68] ffmpeg.call() libswresample 3. 3.100 / 3. 3.100
2021-01-28 09:52:53.943 INFO: [68] ffmpeg.call() libpostproc 55. 3.100 / 55. 3.100
2021-01-28 09:52:53.943 INFO: [68] ffmpeg.call() [x11grab @ 0x56468c02ef80] Stream #0: not enough frames to estimate rate; consider increasing probesize
2021-01-28 09:52:53.943 INFO: [68] ffmpeg.call() Input #0, x11grab, from ‘:0.0+0,0’:
2021-01-28 09:52:53.943 INFO: [68] ffmpeg.call() Duration: N/A, start: 1611823973.881255, bitrate: N/A
2021-01-28 09:52:53.944 INFO: [68] ffmpeg.call() Stream #0:0: Video: rawvideo (BGR[0] / 0x524742), bgr0, 1920x1080, 30 fps, 1000k tbr, 1000k tbn, 1000k tbc
2021-01-28 09:52:53.944 INFO: [68] ffmpeg.call() Guessed Channel Layout for Input Stream #1.0 : stereo
2021-01-28 09:52:53.979 INFO: [68] ffmpeg.call() Input #1, pulse, from ‘default’:
2021-01-28 09:52:53.979 INFO: [68] ffmpeg.call() Duration: N/A, start: 1611823973.913725, bitrate: 1536 kb/s
2021-01-28 09:52:53.979 INFO: [68] ffmpeg.call() Stream #1:0: Audio: pcm_s16le, 48000 Hz, stereo, s16, 1536 kb/s
2021-01-28 09:52:53.979 INFO: [68] ffmpeg.call() Stream mapping:
2021-01-28 09:52:53.979 INFO: [68] ffmpeg.call() Stream #0:0#0:0 (rawvideo (native) → h264 (libx264))
2021-01-28 09:52:53.979 INFO: [68] ffmpeg.call() Stream #1:0#0:1 (pcm_s16le (native) → aac (native))
2021-01-28 09:52:53.979 INFO: [68] ffmpeg.call() Press [q] to stop, [?] for help
2021-01-28 09:52:53.979 INFO: [68] ffmpeg.call() [libx264 @ 0x56468c0459c0] frame MB size (120x68) > level limit (3600)
2021-01-28 09:52:53.979 INFO: [68] ffmpeg.call() [libx264 @ 0x56468c0459c0] MB rate (244800) > level limit (108000)
2021-01-28 09:52:53.980 INFO: [68] ffmpeg.call() [libx264 @ 0x56468c0459c0] using cpu capabilities: MMX2 SSE2Fast SSSE3 SSE4.2 AVX FMA3 BMI2 AVX2 AVX512
2021-01-28 09:52:53.980 INFO: [68] ffmpeg.call() [libx264 @ 0x56468c0459c0] profile Main, level 3.1
2021-01-28 09:52:54.980 INFO: [68] ffmpeg.call() [libx264 @ 0x56468c0459c0] 264 - core 155 r2917 0a84d98 - H.264/MPEG-4 AVC codec - Copyleft 2003-2018 - http://www.videolan.org/x264.html - options: cabac=1 ref=1 deblock=1:0:0 analyse=0x1:0x111 me=hex subme=2 psy=1 psy_rd=1.00:0.00 mixed_ref=0 me_range=16 chroma_me=1 trellis=0 8x8dct=0 cqm=0 deadzone=21,11 fast_pskip=1 chroma_qp_offset=0 threads=4 lookahead_threads=4 sliced_threads=1 slices=4 nr=0 decimate=1 interlaced=0 bluray_compat=0 constrained_intra=0 bframes=0 weightp=1 keyint=60 keyint_min=6 scenecut=40 intra_refresh=0 rc=crf mbtree=0 crf=25.0 qcomp=0.60 qpmin=0 qpmax=69 qpstep=4 ip_ratio=1.40 aq=1:1.00
2021-01-28 09:52:54.980 INFO: [68] ffmpeg.call() Output #0, mp4, to ‘/config/recordings/ejnjsbbcgsfiqmwx/eastbirthdaysweakenall_2021-01-28-09-52-49.mp4’:
2021-01-28 09:52:54.981 INFO: [68] ffmpeg.call() Metadata:
2021-01-28 09:52:54.982 INFO: [68] ffmpeg.call() encoder : Lavf58.20.100
2021-01-28 09:52:54.983 INFO: [68] ffmpeg.call() Stream #0:0: Video: h264 (libx264) (avc1 / 0x31637661), yuv420p(progressive), 1920x1080, q=-1–1, 30 fps, 15360 tbn, 30 tbc
2021-01-28 09:52:54.983 INFO: [68] ffmpeg.call() Metadata:
2021-01-28 09:52:54.983 INFO: [68] ffmpeg.call() encoder : Lavc58.35.100 libx264
2021-01-28 09:52:54.986 INFO: [68] ffmpeg.call() Side data:
2021-01-28 09:52:54.986 INFO: [68] ffmpeg.call() cpb: bitrate max/min/avg: 0/0/0 buffer size: 0 vbv_delay: -1
2021-01-28 09:52:54.986 INFO: [68] ffmpeg.call() Stream #0:1: Audio: aac (LC) (mp4a / 0x6134706D), 44100 Hz, stereo, fltp, 128 kb/s
2021-01-28 09:52:54.986 INFO: [68] ffmpeg.call() Metadata:
2021-01-28 09:52:54.986 INFO: [68] ffmpeg.call() encoder : Lavc58.35.100 aac
2021-01-28 09:52:54.986 INFO: [68] ffmpeg.call() frame= 15 fps=0.0 q=21.0 size= 0kB time=00:00:00.46 bitrate= 0.8kbits/s speed=0.905x
2021-01-28 09:52:54.986 INFO: [68] ffmpeg.call() frame= 31 fps= 30 q=21.0 size= 0kB time=00:00:01.00 bitrate= 0.4kbits/s speed=0.959x
2021-01-28 09:52:55.987 INFO: [68] ffmpeg.call() frame= 46 fps= 29 q=21.0 size= 0kB time=00:00:01.50 bitrate= 0.3kbits/s speed=0.966x
2021-01-28 09:52:56.987 INFO: [68] ffmpeg.call() frame= 61 fps= 30 q=18.0 size= 0kB time=00:00:02.02 bitrate= 0.2kbits/s speed=0.979x
2021-01-28 09:52:56.988 INFO: [68] ffmpeg.call() frame= 77 fps= 30 q=21.0 size= 0kB time=00:00:02.53 bitrate= 0.2kbits/s speed=0.983x
2021-01-28 09:52:57.988 INFO: [68] ffmpeg.call() frame= 92 fps= 30 q=21.0 size= 0kB time=00:00:03.04 bitrate= 0.1kbits/s speed=0.984x
2021-01-28 09:52:57.988 INFO: [68] ffmpeg.call() frame= 108 fps= 30 q=21.0 size= 0kB time=00:00:03.57 bitrate= 0.1kbits/s speed=0.991x
2021-01-28 09:52:58.989 INFO: [68] ffmpeg.call() frame= 123 fps= 30 q=22.0 size= 0kB time=00:00:04.08 bitrate= 0.1kbits/s speed=0.994x
2021-01-28 09:52:58.989 INFO: [68] ffmpeg.call() frame= 139 fps= 30 q=21.0 size= 0kB time=00:00:04.60 bitrate= 0.1kbits/s speed=0.995x
2021-01-28 09:52:59.989 INFO: [68] ffmpeg.call() frame= 154 fps= 30 q=21.0 size= 0kB time=00:00:05.10 bitrate= 0.1kbits/s speed=0.995x
2021-01-28 09:52:59.989 INFO: [68] ffmpeg.call() frame= 169 fps= 30 q=21.0 size= 0kB time=00:00:05.61 bitrate= 0.1kbits/s speed=0.997x
2021-01-28 09:53:00.990 INFO: [68] ffmpeg.call() frame= 184 fps= 30 q=21.0 size= 0kB time=00:00:06.10 bitrate= 0.1kbits/s speed=0.993x
2021-01-28 09:53:00.990 INFO: [68] ffmpeg.call() frame= 200 fps= 30 q=21.0 size= 0kB time=00:00:06.64 bitrate= 0.1kbits/s speed=0.996x
2021-01-28 09:53:01.990 INFO: [68] ffmpeg.call() frame= 215 fps= 30 q=21.0 size= 0kB time=00:00:07.13 bitrate= 0.1kbits/s speed=0.995x
2021-01-28 09:53:01.990 INFO: [68] ffmpeg.call() frame= 230 fps= 30 q=21.0 size= 0kB time=00:00:07.63 bitrate= 0.1kbits/s speed=0.996x
2021-01-28 09:53:02.992 INFO: [68] ffmpeg.call() frame= 245 fps= 30 q=21.0 size= 0kB time=00:00:08.13 bitrate= 0.0kbits/s speed=0.996x
2021-01-28 09:53:02.992 INFO: [68] ffmpeg.call() frame= 261 fps= 30 q=21.0 size= 0kB time=00:00:08.66 bitrate= 0.0kbits/s speed=0.996x
2021-01-28 09:53:03.993 INFO: [68] ffmpeg.call() frame= 277 fps= 30 q=21.0 size= 0kB time=00:00:09.20 bitrate= 0.0kbits/s speed=0.997x
2021-01-28 09:53:03.993 INFO: [68] ffmpeg.call() frame= 292 fps= 30 q=21.0 size= 0kB time=00:00:09.70 bitrate= 0.0kbits/s speed=0.997x
2021-01-28 09:53:04.993 INFO: [68] ffmpeg.call() frame= 307 fps= 30 q=21.0 size= 0kB time=00:00:10.21 bitrate= 0.0kbits/s speed=0.997x
2021-01-28 09:53:04.994 INFO: [68] ffmpeg.call() frame= 323 fps= 30 q=21.0 size= 0kB time=00:00:10.73 bitrate= 0.0kbits/s speed=0.997x
2021-01-28 09:53:05.994 INFO: [68] ffmpeg.call() frame= 338 fps= 30 q=21.0 size= 0kB time=00:00:11.23 bitrate= 0.0kbits/s speed=0.997x
2021-01-28 09:53:05.994 INFO: [68] ffmpeg.call() frame= 354 fps= 30 q=21.0 size= 0kB time=00:00:11.77 bitrate= 0.0kbits/s speed=0.999x
2021-01-28 09:53:06.995 INFO: [68] ffmpeg.call() frame= 369 fps= 30 q=21.0 size= 0kB time=00:00:12.26 bitrate= 0.0kbits/s speed=0.995x
2021-01-28 09:53:06.995 INFO: [68] ffmpeg.call() frame= 385 fps= 30 q=21.0 size= 0kB time=00:00:12.80 bitrate= 0.0kbits/s speed=0.997x
2021-01-28 09:53:07.998 INFO: [68] ffmpeg.call() frame= 401 fps= 30 q=21.0 size= 0kB time=00:00:13.33 bitrate= 0.0kbits/s speed=0.999x
2021-01-28 09:53:08.000 INFO: [68] ffmpeg.call() frame= 416 fps= 30 q=21.0 size= 0kB time=00:00:13.83 bitrate= 0.0kbits/s speed=0.998x
2021-01-28 09:53:09.001 INFO: [68] ffmpeg.call() frame= 431 fps= 30 q=21.0 size= 0kB time=00:00:14.34 bitrate= 0.0kbits/s speed=0.999x
2021-01-28 09:53:09.001 INFO: [68] ffmpeg.call() frame= 447 fps= 30 q=21.0 size= 0kB time=00:00:14.86 bitrate= 0.0kbits/s speed=0.998x
2021-01-28 09:53:10.001 INFO: [68] ffmpeg.call() frame= 463 fps= 30 q=21.0 size= 0kB time=00:00:15.40 bitrate= 0.0kbits/s speed= 1x
2021-01-28 09:53:10.001 INFO: [68] ffmpeg.call() frame= 478 fps= 30 q=21.0 size= 0kB time=00:00:15.90 bitrate= 0.0kbits/s speed=0.999x
2021-01-28 09:53:11.003 INFO: [68] ffmpeg.call() frame= 493 fps= 30 q=21.0 size= 0kB time=00:00:16.43 bitrate= 0.0kbits/s speed= 1x
2021-01-28 09:53:11.004 INFO: [68] ffmpeg.call() frame= 508 fps= 30 q=21.0 size= 0kB time=00:00:16.90 bitrate= 0.0kbits/s speed=0.999x
2021-01-28 09:53:12.004 INFO: [68] ffmpeg.call() frame= 523 fps= 30 q=21.0 size= 0kB time=00:00:17.43 bitrate= 0.0kbits/s speed= 1x
2021-01-28 09:53:12.004 INFO: [68] ffmpeg.call() frame= 538 fps= 30 q=21.0 size= 0kB time=00:00:17.90 bitrate= 0.0kbits/s speed=0.999x
2021-01-28 09:53:12.811 INFO: [68] ffmpeg.call() frame= 554 fps= 30 q=21.0 size= 0kB time=00:00:18.43 bitrate= 0.0kbits/s speed=0.999x
2021-01-28 09:53:12.811 INFO: [68] ffmpeg.call() frame= 566 fps= 30 q=21.0 Lsize= 135kB time=00:00:18.87 bitrate= 58.4kbits/s speed= 1x
2021-01-28 09:53:12.811 INFO: [68] ffmpeg.call() video:108kB audio:8kB subtitle:0kB other streams:0kB global headers:0kB muxing overhead: 16.060658%
2021-01-28 09:53:12.811 INFO: [68] ffmpeg.call() [libx264 @ 0x56468c0459c0] frame I:10 Avg QP: 3.86 size: 3338
2021-01-28 09:53:12.811 INFO: [68] ffmpeg.call() [libx264 @ 0x56468c0459c0] frame P:556 Avg QP: 6.10 size: 137
2021-01-28 09:53:12.811 INFO: [68] ffmpeg.call() [libx264 @ 0x56468c0459c0] mb I I16…4: 99.3% 0.0% 0.7%
2021-01-28 09:53:12.811 INFO: [68] ffmpeg.call() [libx264 @ 0x56468c0459c0] mb P I16…4: 0.0% 0.0% 0.0% P16…4: 0.0% 0.0% 0.0% 0.0% 0.0% skip:100.0%
2021-01-28 09:53:12.811 INFO: [68] ffmpeg.call() [libx264 @ 0x56468c0459c0] coded y,uvDC,uvAC intra: 0.5% 0.3% 0.2% inter: 0.0% 0.0% 0.0%
2021-01-28 09:53:12.811 INFO: [68] ffmpeg.call() [libx264 @ 0x56468c0459c0] i16 v,h,dc,p: 92% 2% 6% 0%
2021-01-28 09:53:12.812 INFO: [68] ffmpeg.call() [libx264 @ 0x56468c0459c0] i4 v,h,dc,ddl,ddr,vr,hd,vl,hu: 36% 36% 17% 2% 2% 2% 2% 2% 2%
2021-01-28 09:53:12.812 INFO: [68] ffmpeg.call() [libx264 @ 0x56468c0459c0] i8c dc,h,v,p: 100% 0% 0% 0%
2021-01-28 09:53:12.812 INFO: [68] ffmpeg.call() [libx264 @ 0x56468c0459c0] Weighted P-Frames: Y:0.0% UV:0.0%
2021-01-28 09:53:12.812 INFO: [68] ffmpeg.call() [libx264 @ 0x56468c0459c0] kb/s:46.45
2021-01-28 09:53:12.814 INFO: [68] ffmpeg.call() [aac @ 0x56468c046dc0] Qavg: 64659.234
2021-01-28 09:53:12.814 INFO: [68] ffmpeg.call() Exiting normally, received signal 2.

This is what i can see: