Jibri crashed after about 1 minute from start recording/streaming

I use docker install foк Jitsi ( GitHub - jitsi/docker-jitsi-meet: Jitsi Meet on Docker ) release 7648-4.

Installation created with Nginx Proxy Manager as reverse-proxy.
Jitsi works fine.

I try use Jibri for recording and streaming to kinescope.io.
Recording starts, but crashes about a minute after start.
jibri/logs/ffmeg.0.txt

....
Jibri 2022-10-04 15:26:24.753 INFO: [198] LoggingUtils$Companion$OutputLogger$1$1.call#42: frame= 1716 fps= 23 q=19.0 size=    5632kB time=00:00:57.16 bitrate= 807.1kbits/s speed=0.772x
Jibri 2022-10-04 15:26:24.754 INFO: [198] LoggingUtils$Companion$OutputLogger$1$1.call#42: frame= 1731 fps= 23 q=20.0 size=    5632kB time=00:00:57.67 bitrate= 799.9kbits/s speed=0.774x
Jibri 2022-10-04 15:26:26.601 INFO: [198] LoggingUtils$Companion$OutputLogger$1$1.call#42: frame= 1736 fps= 23 q=18.0 Lsize=    5757kB time=00:00:57.88 bitrate= 814.8kbits/s speed=0.755x
Jibri 2022-10-04 15:26:26.601 INFO: [198] LoggingUtils$Companion$OutputLogger$1$1.call#42: video:5666kB audio:25kB subtitle:0kB other streams:0kB global headers:0kB muxing overhead: 1.163246%
Jibri 2022-10-04 15:26:26.601 INFO: [198] LoggingUtils$Companion$OutputLogger$1$1.call#42: [libx264 @ 0x55d5738baa00] frame I:30    Avg QP:13.04  size:106986
Jibri 2022-10-04 15:26:26.601 INFO: [198] LoggingUtils$Companion$OutputLogger$1$1.call#42: [libx264 @ 0x55d5738baa00] frame P:1706  Avg QP:17.43  size:  1519
Jibri 2022-10-04 15:26:26.601 INFO: [198] LoggingUtils$Companion$OutputLogger$1$1.call#42: [libx264 @ 0x55d5738baa00] mb I  I16..4: 61.2%  0.0% 38.8%
Jibri 2022-10-04 15:26:26.603 INFO: [198] LoggingUtils$Companion$OutputLogger$1$1.call#42: [libx264 @ 0x55d5738baa00] mb P  I16..4:  0.7%  0.0%  0.0%  P16..4:  4.5%  0.2%  0.1%  0.0%  0.0%    skip:94.5%
Jibri 2022-10-04 15:26:26.604 INFO: [198] LoggingUtils$Companion$OutputLogger$1$1.call#42: [libx264 @ 0x55d5738baa00] coded y,uvDC,uvAC intra: 38.6% 24.9% 21.5% inter: 1.4% 1.2% 0.1%
Jibri 2022-10-04 15:26:26.604 INFO: [198] LoggingUtils$Companion$OutputLogger$1$1.call#42: [libx264 @ 0x55d5738baa00] i16 v,h,dc,p: 31% 56% 10%  3%
Jibri 2022-10-04 15:26:26.607 INFO: [198] LoggingUtils$Companion$OutputLogger$1$1.call#42: [libx264 @ 0x55d5738baa00] i4 v,h,dc,ddl,ddr,vr,hd,vl,hu: 24% 34% 20%  2%  5%  3%  4%  3%  6%
Jibri 2022-10-04 15:26:26.608 INFO: [198] LoggingUtils$Companion$OutputLogger$1$1.call#42: [libx264 @ 0x55d5738baa00] i8c dc,h,v,p: 77% 16%  6%  1%
Jibri 2022-10-04 15:26:26.608 INFO: [198] LoggingUtils$Companion$OutputLogger$1$1.call#42: [libx264 @ 0x55d5738baa00] Weighted P-Frames: Y:0.1% UV:0.1%
Jibri 2022-10-04 15:26:26.608 INFO: [198] LoggingUtils$Companion$OutputLogger$1$1.call#42: [libx264 @ 0x55d5738baa00] kb/s:802.08
Jibri 2022-10-04 15:26:26.608 INFO: [198] LoggingUtils$Companion$OutputLogger$1$1.call#42: [aac @ 0x55d5738bc040] Qavg: 65261.332
Jibri 2022-10-04 15:26:26.608 INFO: [198] LoggingUtils$Companion$OutputLogger$1$1.call#42: Exiting normally, received signal 2.

Also I try stream to kinescope.io. Strats fine, but also crahes after about a minute:

Jibri 2022-10-04 15:20:50.575 INFO: [177] LoggingUtils$Companion$OutputLogger$1$1.call#42: frame= 1720 fps= 24 q=18.0 size=    4921kB time=00:00:57.30 bitrate= 703.4kbits/s speed=0.806x
Jibri 2022-10-04 15:20:51.087 INFO: [177] LoggingUtils$Companion$OutputLogger$1$1.call#42: frame= 1721 fps= 21 q=18.0 size=    4922kB time=00:00:57.33 bitrate= 703.3kbits/s speed=0.697x
Jibri 2022-10-04 15:20:51.088 INFO: [177] LoggingUtils$Companion$OutputLogger$1$1.call#42: av_interleaved_write_frame(): Broken pipe
Jibri 2022-10-04 15:20:51.088 INFO: [177] LoggingUtils$Companion$OutputLogger$1$1.call#42: [flv @ 0x55b245240240] Failed to update header with correct duration.
Jibri 2022-10-04 15:20:51.088 INFO: [177] LoggingUtils$Companion$OutputLogger$1$1.call#42: [flv @ 0x55b245240240] Failed to update header with correct filesize.
Jibri 2022-10-04 15:20:51.088 INFO: [177] LoggingUtils$Companion$OutputLogger$1$1.call#42: Error writing trailer of rtmp://rtmp.kinescope.io/live/fb0429a22678c0be9248268fe807efb2: Broken pipe
Jibri 2022-10-04 15:20:51.088 INFO: [177] LoggingUtils$Companion$OutputLogger$1$1.call#42: frame= 1721 fps= 21 q=18.0 Lsize=    4922kB time=00:00:57.35 bitrate= 703.0kbits/s speed=0.694x
Jibri 2022-10-04 15:20:51.088 INFO: [177] LoggingUtils$Companion$OutputLogger$1$1.call#42: video:4816kB audio:15kB subtitle:0kB other streams:0kB global headers:0kB muxing overhead: 1.881381%
Jibri 2022-10-04 15:20:51.088 INFO: [177] LoggingUtils$Companion$OutputLogger$1$1.call#42: [libx264 @ 0x55b2452417c0] frame I:30    Avg QP:12.49  size:107412
Jibri 2022-10-04 15:20:51.088 INFO: [177] LoggingUtils$Companion$OutputLogger$1$1.call#42: [libx264 @ 0x55b2452417c0] frame P:1691  Avg QP:16.53  size:  1010
Jibri 2022-10-04 15:20:51.088 INFO: [177] LoggingUtils$Companion$OutputLogger$1$1.call#42: [libx264 @ 0x55b2452417c0] mb I  I16..4: 55.4% 12.7% 31.9%
Jibri 2022-10-04 15:20:51.089 INFO: [177] LoggingUtils$Companion$OutputLogger$1$1.call#42: [libx264 @ 0x55b2452417c0] mb P  I16..4:  0.4%  0.1%  0.0%  P16..4:  2.1%  0.1%  0.1%  0.0%  0.0%    skip:97.3%
Jibri 2022-10-04 15:20:51.089 INFO: [177] LoggingUtils$Companion$OutputLogger$1$1.call#42: [libx264 @ 0x55b2452417c0] 8x8 transform intra:14.2% inter:12.7%
Jibri 2022-10-04 15:20:52.089 INFO: [177] LoggingUtils$Companion$OutputLogger$1$1.call#42: [libx264 @ 0x55b2452417c0] coded y,uvDC,uvAC intra: 41.9% 26.7% 21.9% inter: 0.8% 0.5% 0.1%
Jibri 2022-10-04 15:20:52.089 INFO: [177] LoggingUtils$Companion$OutputLogger$1$1.call#42: [libx264 @ 0x55b2452417c0] i16 v,h,dc,p: 34% 52% 10%  3%
Jibri 2022-10-04 15:20:52.090 INFO: [177] LoggingUtils$Companion$OutputLogger$1$1.call#42: [libx264 @ 0x55b2452417c0] i8 v,h,dc,ddl,ddr,vr,hd,vl,hu:  5% 81%  7%  1%  1%  1%  1%  1%  3%
Jibri 2022-10-04 15:20:52.090 INFO: [177] LoggingUtils$Companion$OutputLogger$1$1.call#42: [libx264 @ 0x55b2452417c0] i4 v,h,dc,ddl,ddr,vr,hd,vl,hu: 26% 31% 21%  2%  5%  3%  4%  3%  6%
Jibri 2022-10-04 15:20:52.091 INFO: [177] LoggingUtils$Companion$OutputLogger$1$1.call#42: [libx264 @ 0x55b2452417c0] i8c dc,h,v,p: 79% 14%  6%  1%
Jibri 2022-10-04 15:20:52.091 INFO: [177] LoggingUtils$Companion$OutputLogger$1$1.call#42: [libx264 @ 0x55b2452417c0] Weighted P-Frames: Y:0.1% UV:0.0%
Jibri 2022-10-04 15:20:52.091 INFO: [177] LoggingUtils$Companion$OutputLogger$1$1.call#42: [libx264 @ 0x55b2452417c0] kb/s:687.62
Jibri 2022-10-04 15:20:52.091 INFO: [177] LoggingUtils$Companion$OutputLogger$1$1.call#42: [aac @ 0x55b245243140] Qavg: 65536.000
Jibri 2022-10-04 15:20:52.091 INFO: [177] LoggingUtils$Companion$OutputLogger$1$1.call#42: Conversion failed!

How I can fix it?

PS. I try create /usr/local/bin/ffmpeg in jibri-container:

#!/bin/bash
echo $@ >> /config/logs/ffmpeg.log
ARGS=$@
exec /usr/bin/ffmpeg $ARGS -flvflags no_duration_filesize

/config/logs/ffmpeg.logs

-y -v info -f x11grab -draw_mouse 0 -r 30 -s 1280x720 -thread_queue_size 4096 -i :0.0+0,0 -f pulse -thread_queue_size 4096 -i default -acodec aac -strict -2 -ar 44100 -b:a 128k -af aresample=async=1 -c:
v libx264 -preset veryfast -profile:v main -level 3.1 -pix_fmt yuv420p -r 30 -crf 25 -g 60 -tune zerolatency -f mp4 /config/recordings/kkjixlpaeshvcpee/testmeet_2022-10-04-15-25-05.mp4

But nothing changed.

Welcome to the forum.

What are the specs of the Jibri server?
Also, share your ffmpeg log.

My .env file (I hide my ip, pass and domain names)

CONFIG=.jitsi-meet-cfg
HTTP_PORT=8000
HTTPS_PORT=8443
TZ=Europe/Moscow
PUBLIC_URL=https://jitsi.mydomain.com
DOCKER_HOST_ADDRESS=my.ip.3.4
ETHERPAD_TITLE=Video Chat
ETHERPAD_DEFAULT_PAD_TEXT="Welcome to Web Chat!\n\n"
ETHERPAD_SKIN_NAME=colibris
ETHERPAD_SKIN_VARIANTS="super-light-toolbar super-light-editor light-background full-width-editor"
JICOFO_AUTH_PASSWORD=...
JVB_AUTH_PASSWORD=...
JIGASI_XMPP_PASSWORD=...
JIBRI_RECORDER_PASSWORD=...
JIBRI_XMPP_PASSWORD=.
DISABLE_HTTPS=1
VIRTUAL_HOST=jitsi.mydomain.com
LETSENCRYPT_HOST=jitsi.mydomain.com
LETSENCRYPT_EMAIL=my@email.com
ENABLE_XMPP_WEBSOCKET=0
XMPP_SERVER=jitsi-xmpp
XMPP_BOSH_URL_BASE=http://jitsi-xmpp:5280
TURN_HOST=turns.mydomain.com
TURN_PORT=3478
TURNS_HOST=turns.mydomain.com
TURNS_PORT=5349
TURN_CREDENTIALS=...
ENABLE_RECORDING=1
ENABLE_LIVESTREAMING=1

FFMpreg.log
Start stream:

Jibri 2022-10-04 15:19:27.961 INFO: [177] LoggingUtils$Companion$OutputLogger$1$1.call#42: ffmpeg version 4.3.4-0+deb11u1 Copyright (c) 2000-2021 the FFmpeg developers
Jibri 2022-10-04 15:19:27.961 INFO: [177] LoggingUtils$Companion$OutputLogger$1$1.call#42:   built with gcc 10 (Debian 10.2.1-6)
Jibri 2022-10-04 15:19:28.054 INFO: [177] LoggingUtils$Companion$OutputLogger$1$1.call#42:   configuration: --prefix=/usr --extra-version=0+deb11u1 --toolchain=hardened --libdir=/usr/lib/x86_64-linux-gn
u --incdir=/usr/include/x86_64-linux-gnu --arch=amd64 --enable-gpl --disable-stripping --enable-avresample --disable-filter=resample --enable-gnutls --enable-ladspa --enable-libaom --enable-libass --ena
ble-libbluray --enable-libbs2b --enable-libcaca --enable-libcdio --enable-libcodec2 --enable-libdav1d --enable-libflite --enable-libfontconfig --enable-libfreetype --enable-libfribidi --enable-libgme --
enable-libgsm --enable-libjack --enable-libmp3lame --enable-libmysofa --enable-libopenjpeg --enable-libopenmpt --enable-libopus --enable-libpulse --enable-librabbitmq --enable-librsvg --enable-librubber
band --enable-libshine --enable-libsnappy --enable-libsoxr --enable-libspeex --enable-libsrt --enable-libssh --enable-libtheora --enable-libtwolame --enable-libvidstab --enable-libvorbis --enable-libvpx
 --enable-libwavpack --enable-libwebp --enable-libx265 --enable-libxml2 --enable-libxvid --enable-libzmq --enable-libzvbi --enable-lv2 --enable-omx --enable-openal --enable-opencl --enable-opengl --enab
le-sdl2 --enable-pocketsphinx --enable-libmfx --enable-libdc1394 --enable-libdrm --enable-libiec61883 --enable-chromaprint --enable-frei0r --enable-libx264 --enable-shared
Jibri 2022-10-04 15:19:28.054 INFO: [177] LoggingUtils$Companion$OutputLogger$1$1.call#42:   libavutil      56. 51.100 / 56. 51.100
Jibri 2022-10-04 15:19:28.054 INFO: [177] LoggingUtils$Companion$OutputLogger$1$1.call#42:   libavcodec     58. 91.100 / 58. 91.100
Jibri 2022-10-04 15:19:28.054 INFO: [177] LoggingUtils$Companion$OutputLogger$1$1.call#42:   libavformat    58. 45.100 / 58. 45.100
Jibri 2022-10-04 15:19:28.054 INFO: [177] LoggingUtils$Companion$OutputLogger$1$1.call#42:   libavdevice    58. 10.100 / 58. 10.100
Jibri 2022-10-04 15:19:28.054 INFO: [177] LoggingUtils$Companion$OutputLogger$1$1.call#42:   libavfilter     7. 85.100 /  7. 85.100
Jibri 2022-10-04 15:19:28.054 INFO: [177] LoggingUtils$Companion$OutputLogger$1$1.call#42:   libavresample   4.  0.  0 /  4.  0.  0
Jibri 2022-10-04 15:19:28.054 INFO: [177] LoggingUtils$Companion$OutputLogger$1$1.call#42:   libswscale      5.  7.100 /  5.  7.100
Jibri 2022-10-04 15:19:28.054 INFO: [177] LoggingUtils$Companion$OutputLogger$1$1.call#42:   libswresample   3.  7.100 /  3.  7.100
Jibri 2022-10-04 15:19:28.054 INFO: [177] LoggingUtils$Companion$OutputLogger$1$1.call#42:   libpostproc    55.  7.100 / 55.  7.100
Jibri 2022-10-04 15:19:28.054 INFO: [177] LoggingUtils$Companion$OutputLogger$1$1.call#42: Trailing option(s) found in the command: may be ignored.
Jibri 2022-10-04 15:19:28.054 INFO: [177] LoggingUtils$Companion$OutputLogger$1$1.call#42: [x11grab @ 0x55b245229d40] Stream #0: not enough frames to estimate rate; consider increasing probesize
Jibri 2022-10-04 15:19:28.054 INFO: [177] LoggingUtils$Companion$OutputLogger$1$1.call#42: Input #0, x11grab, from ':0.0+0,0':
Jibri 2022-10-04 15:19:28.054 INFO: [177] LoggingUtils$Companion$OutputLogger$1$1.call#42:   Duration: N/A, start: 1664885968.006349, bitrate: 884736 kb/s
Jibri 2022-10-04 15:19:28.371 INFO: [177] LoggingUtils$Companion$OutputLogger$1$1.call#42:     Stream #0:0: Video: rawvideo (BGR[0] / 0x524742), bgr0, 1280x720, 884736 kb/s, 30 fps, 1000k tbr, 1000k tbn
, 1000k tbc
Jibri 2022-10-04 15:19:28.371 INFO: [177] LoggingUtils$Companion$OutputLogger$1$1.call#42: Guessed Channel Layout for Input Stream #1.0 : stereo
Jibri 2022-10-04 15:19:28.371 INFO: [177] LoggingUtils$Companion$OutputLogger$1$1.call#42: Input #1, pulse, from 'default':
Jibri 2022-10-04 15:19:28.371 INFO: [177] LoggingUtils$Companion$OutputLogger$1$1.call#42:   Duration: N/A, start: 1664885968.064374, bitrate: 1536 kb/s
Jibri 2022-10-04 15:19:28.371 INFO: [177] LoggingUtils$Companion$OutputLogger$1$1.call#42:     Stream #1:0: Audio: pcm_s16le, 48000 Hz, stereo, s16, 1536 kb/s
Jibri 2022-10-04 15:19:28.371 INFO: [177] LoggingUtils$Companion$OutputLogger$1$1.call#42: Stream mapping:
Jibri 2022-10-04 15:19:28.371 INFO: [177] LoggingUtils$Companion$OutputLogger$1$1.call#42:   Stream #0:0 -> #0:0 (rawvideo (native) -> h264 (libx264))
Jibri 2022-10-04 15:19:28.371 INFO: [177] LoggingUtils$Companion$OutputLogger$1$1.call#42:   Stream #1:0 -> #0:1 (pcm_s16le (native) -> aac (native))
Jibri 2022-10-04 15:19:28.371 INFO: [177] LoggingUtils$Companion$OutputLogger$1$1.call#42: Press [q] to stop, [?] for help
Jibri 2022-10-04 15:19:28.371 INFO: [177] LoggingUtils$Companion$OutputLogger$1$1.call#42: [libx264 @ 0x55b2452417c0] using cpu capabilities: MMX2 SSE2Slow
Jibri 2022-10-04 15:19:28.371 INFO: [177] LoggingUtils$Companion$OutputLogger$1$1.call#42: [libx264 @ 0x55b2452417c0] profile High, level 3.1, 4:2:0, 8-bit
Jibri 2022-10-04 15:19:29.373 INFO: [177] LoggingUtils$Companion$OutputLogger$1$1.call#42: [libx264 @ 0x55b2452417c0] 264 - core 160 r3011 cde9a93 - H.264/MPEG-4 AVC codec - Copyleft 2003-2020 - http://
www.videolan.org/x264.html - options: cabac=1 ref=1 deblock=1:0:0 analyse=0x3:0x113 me=hex subme=2 psy=1 psy_rd=1.00:0.00 mixed_ref=0 me_range=16 chroma_me=1 trellis=0 8x8dct=1 cqm=0 deadzone=21,11 fast
_pskip=1 chroma_qp_offset=0 threads=11 lookahead_threads=11 sliced_threads=1 slices=11 nr=0 decimate=1 interlaced=0 bluray_compat=0 constrained_intra=0 bframes=0 weightp=1 keyint=60 keyint_min=6 scenecu
t=40 intra_refresh=0 rc_lookahead=0 rc=crf mbtree=0 crf=25.0 qcomp=0.60 qpmin=0 qpmax=69 qpstep=4 vbv_maxrate=2976 vbv_bufsize=5952 crf_max=0.0 nal_hrd=none filler=0 ip_ratio=1.40 aq=1:1.00
Jibri 2022-10-04 15:19:29.373 INFO: [177] LoggingUtils$Companion$OutputLogger$1$1.call#42: Output #0, flv, to 'rtmp://rtmp.kinescope.io/live/fb0429a22678c0be9248268':
Jibri 2022-10-04 15:19:29.373 INFO: [177] LoggingUtils$Companion$OutputLogger$1$1.call#42:   Metadata:
Jibri 2022-10-04 15:19:29.373 INFO: [177] LoggingUtils$Companion$OutputLogger$1$1.call#42:     encoder         : Lavf58.45.100
Jibri 2022-10-04 15:19:29.373 INFO: [177] LoggingUtils$Companion$OutputLogger$1$1.call#42:     Stream #0:0: Video: h264 (libx264) ([7][0][0][0] / 0x0007), yuv420p(progressive), 1280x720, q=-1--1, 30 fps
, 1k tbn, 30 tbc
Jibri 2022-10-04 15:19:29.373 INFO: [177] LoggingUtils$Companion$OutputLogger$1$1.call#42:     Metadata:
Jibri 2022-10-04 15:19:29.373 INFO: [177] LoggingUtils$Companion$OutputLogger$1$1.call#42:       encoder         : Lavc58.91.100 libx264
Jibri 2022-10-04 15:19:29.373 INFO: [177] LoggingUtils$Companion$OutputLogger$1$1.call#42:     Side data:
Jibri 2022-10-04 15:19:29.373 INFO: [177] LoggingUtils$Companion$OutputLogger$1$1.call#42:       cpb: bitrate max/min/avg: 2976000/0/0 buffer size: 5952000 vbv_delay: N/A
Jibri 2022-10-04 15:19:29.373 INFO: [177] LoggingUtils$Companion$OutputLogger$1$1.call#42:     Stream #0:1: Audio: aac (LC) ([10][0][0][0] / 0x000A), 44100 Hz, stereo, fltp, 128 kb/s
Jibri 2022-10-04 15:19:29.373 INFO: [177] LoggingUtils$Companion$OutputLogger$1$1.call#42:     Metadata:
Jibri 2022-10-04 15:19:29.373 INFO: [177] LoggingUtils$Companion$OutputLogger$1$1.call#42:       encoder         : Lavc58.91.100 aac
Jibri 2022-10-04 15:19:29.373 INFO: [177] LoggingUtils$Companion$OutputLogger$1$1.call#42: frame=    9 fps=0.0 q=21.0 size=      11kB time=00:00:00.27 bitrate= 320.1kbits/s speed=0.527x
Jibri 2022-10-04 15:19:30.373 INFO: [177] LoggingUtils$Companion$OutputLogger$1$1.call#42: frame=   18 fps= 16 q=22.0 size=      21kB time=00:00:00.56 bitrate= 307.1kbits/s speed=0.511x

Start recording:

Jibri 2022-10-04 15:10:06.507 INFO: [145] LoggingUtils$Companion$OutputLogger$1$1.call#42: ffmpeg version 4.3.4-0+deb11u1 Copyright (c) 2000-2021 the FFmpeg developers
Jibri 2022-10-04 15:10:06.508 INFO: [145] LoggingUtils$Companion$OutputLogger$1$1.call#42:   built with gcc 10 (Debian 10.2.1-6)
Jibri 2022-10-04 15:10:06.607 INFO: [145] LoggingUtils$Companion$OutputLogger$1$1.call#42:   configuration: --prefix=/usr --extra-version=0+deb11u1 --toolchain=hardened --libdir=/usr/lib/x86_64-linux-gn
u --incdir=/usr/include/x86_64-linux-gnu --arch=amd64 --enable-gpl --disable-stripping --enable-avresample --disable-filter=resample --enable-gnutls --enable-ladspa --enable-libaom --enable-libass --ena
ble-libbluray --enable-libbs2b --enable-libcaca --enable-libcdio --enable-libcodec2 --enable-libdav1d --enable-libflite --enable-libfontconfig --enable-libfreetype --enable-libfribidi --enable-libgme --
enable-libgsm --enable-libjack --enable-libmp3lame --enable-libmysofa --enable-libopenjpeg --enable-libopenmpt --enable-libopus --enable-libpulse --enable-librabbitmq --enable-librsvg --enable-librubber
band --enable-libshine --enable-libsnappy --enable-libsoxr --enable-libspeex --enable-libsrt --enable-libssh --enable-libtheora --enable-libtwolame --enable-libvidstab --enable-libvorbis --enable-libvpx
 --enable-libwavpack --enable-libwebp --enable-libx265 --enable-libxml2 --enable-libxvid --enable-libzmq --enable-libzvbi --enable-lv2 --enable-omx --enable-openal --enable-opencl --enable-opengl --enab
le-sdl2 --enable-pocketsphinx --enable-libmfx --enable-libdc1394 --enable-libdrm --enable-libiec61883 --enable-chromaprint --enable-frei0r --enable-libx264 --enable-shared
Jibri 2022-10-04 15:10:06.607 INFO: [145] LoggingUtils$Companion$OutputLogger$1$1.call#42:   libavutil      56. 51.100 / 56. 51.100
Jibri 2022-10-04 15:10:06.607 INFO: [145] LoggingUtils$Companion$OutputLogger$1$1.call#42:   libavcodec     58. 91.100 / 58. 91.100
Jibri 2022-10-04 15:10:06.607 INFO: [145] LoggingUtils$Companion$OutputLogger$1$1.call#42:   libavformat    58. 45.100 / 58. 45.100
Jibri 2022-10-04 15:10:06.607 INFO: [145] LoggingUtils$Companion$OutputLogger$1$1.call#42:   libavdevice    58. 10.100 / 58. 10.100
Jibri 2022-10-04 15:10:06.607 INFO: [145] LoggingUtils$Companion$OutputLogger$1$1.call#42:   libavfilter     7. 85.100 /  7. 85.100
Jibri 2022-10-04 15:10:06.607 INFO: [145] LoggingUtils$Companion$OutputLogger$1$1.call#42:   libavresample   4.  0.  0 /  4.  0.  0
Jibri 2022-10-04 15:10:06.607 INFO: [145] LoggingUtils$Companion$OutputLogger$1$1.call#42:   libswscale      5.  7.100 /  5.  7.100
Jibri 2022-10-04 15:10:06.607 INFO: [145] LoggingUtils$Companion$OutputLogger$1$1.call#42:   libswresample   3.  7.100 /  3.  7.100
Jibri 2022-10-04 15:10:06.607 INFO: [145] LoggingUtils$Companion$OutputLogger$1$1.call#42:   libpostproc    55.  7.100 / 55.  7.100
Jibri 2022-10-04 15:10:06.607 INFO: [145] LoggingUtils$Companion$OutputLogger$1$1.call#42: Trailing option(s) found in the command: may be ignored.
Jibri 2022-10-04 15:10:06.607 INFO: [145] LoggingUtils$Companion$OutputLogger$1$1.call#42: [x11grab @ 0x556817c7be00] Stream #0: not enough frames to estimate rate; consider increasing probesize
Jibri 2022-10-04 15:10:06.607 INFO: [145] LoggingUtils$Companion$OutputLogger$1$1.call#42: Input #0, x11grab, from ':0.0+0,0':
Jibri 2022-10-04 15:10:06.607 INFO: [145] LoggingUtils$Companion$OutputLogger$1$1.call#42:   Duration: N/A, start: 1664885406.571602, bitrate: 884736 kb/s
Jibri 2022-10-04 15:10:06.655 INFO: [145] LoggingUtils$Companion$OutputLogger$1$1.call#42:     Stream #0:0: Video: rawvideo (BGR[0] / 0x524742), bgr0, 1280x720, 884736 kb/s, 30 fps, 1000k tbr, 1000k tbn
, 1000k tbc
Jibri 2022-10-04 15:10:06.655 INFO: [145] LoggingUtils$Companion$OutputLogger$1$1.call#42: Guessed Channel Layout for Input Stream #1.0 : stereo
Jibri 2022-10-04 15:10:06.655 INFO: [145] LoggingUtils$Companion$OutputLogger$1$1.call#42: Input #1, pulse, from 'default':
Jibri 2022-10-04 15:10:06.656 INFO: [145] LoggingUtils$Companion$OutputLogger$1$1.call#42:   Duration: N/A, start: 1664885406.612772, bitrate: 1536 kb/s
Jibri 2022-10-04 15:10:06.656 INFO: [145] LoggingUtils$Companion$OutputLogger$1$1.call#42:     Stream #1:0: Audio: pcm_s16le, 48000 Hz, stereo, s16, 1536 kb/s
Jibri 2022-10-04 15:10:06.656 INFO: [145] LoggingUtils$Companion$OutputLogger$1$1.call#42: Stream mapping:
Jibri 2022-10-04 15:10:06.656 INFO: [145] LoggingUtils$Companion$OutputLogger$1$1.call#42:   Stream #0:0 -> #0:0 (rawvideo (native) -> h264 (libx264))
Jibri 2022-10-04 15:10:06.656 INFO: [145] LoggingUtils$Companion$OutputLogger$1$1.call#42:   Stream #1:0 -> #0:1 (pcm_s16le (native) -> aac (native))
Jibri 2022-10-04 15:10:06.656 INFO: [145] LoggingUtils$Companion$OutputLogger$1$1.call#42: Press [q] to stop, [?] for help
Jibri 2022-10-04 15:10:06.656 INFO: [145] LoggingUtils$Companion$OutputLogger$1$1.call#42: [libx264 @ 0x556817c93880] using cpu capabilities: MMX2 SSE2Slow
Jibri 2022-10-04 15:10:06.656 INFO: [145] LoggingUtils$Companion$OutputLogger$1$1.call#42: [libx264 @ 0x556817c93880] profile Main, level 3.1, 4:2:0, 8-bit
Jibri 2022-10-04 15:10:07.656 INFO: [145] LoggingUtils$Companion$OutputLogger$1$1.call#42: [libx264 @ 0x556817c93880] 264 - core 160 r3011 cde9a93 - H.264/MPEG-4 AVC codec - Copyleft 2003-2020 - http://
www.videolan.org/x264.html - options: cabac=1 ref=1 deblock=1:0:0 analyse=0x1:0x111 me=hex subme=2 psy=1 psy_rd=1.00:0.00 mixed_ref=0 me_range=16 chroma_me=1 trellis=0 8x8dct=0 cqm=0 deadzone=21,11 fast
_pskip=1 chroma_qp_offset=0 threads=11 lookahead_threads=11 sliced_threads=1 slices=11 nr=0 decimate=1 interlaced=0 bluray_compat=0 constrained_intra=0 bframes=0 weightp=1 keyint=60 keyint_min=6 scenecut=40 intra_refresh=0 rc=crf mbtree=0 crf=25.0 qcomp=0.60 qpmin=0 qpmax=69 qpstep=4 ip_ratio=1.40 aq=1:1.00
Jibri 2022-10-04 15:10:07.656 INFO: [145] LoggingUtils$Companion$OutputLogger$1$1.call#42: Output #0, mp4, to '/config/recordings/nrheqduuctdgjsod/testmeet_2022-10-04-15-10-01.mp4':
Jibri 2022-10-04 15:10:07.657 INFO: [145] LoggingUtils$Companion$OutputLogger$1$1.call#42:   Metadata:
Jibri 2022-10-04 15:10:07.657 INFO: [145] LoggingUtils$Companion$OutputLogger$1$1.call#42:     encoder         : Lavf58.45.100
Jibri 2022-10-04 15:10:07.657 INFO: [145] LoggingUtils$Companion$OutputLogger$1$1.call#42:     Stream #0:0: Video: h264 (libx264) (avc1 / 0x31637661), yuv420p(progressive), 1280x720, q=-1--1, 30 fps, 15
360 tbn, 30 tbc
Jibri 2022-10-04 15:10:07.657 INFO: [145] LoggingUtils$Companion$OutputLogger$1$1.call#42:     Metadata:
Jibri 2022-10-04 15:10:07.657 INFO: [145] LoggingUtils$Companion$OutputLogger$1$1.call#42:       encoder         : Lavc58.91.100 libx264
Jibri 2022-10-04 15:10:07.657 INFO: [145] LoggingUtils$Companion$OutputLogger$1$1.call#42:     Side data:
Jibri 2022-10-04 15:10:07.657 INFO: [145] LoggingUtils$Companion$OutputLogger$1$1.call#42:       cpb: bitrate max/min/avg: 0/0/0 buffer size: 0 vbv_delay: N/A
Jibri 2022-10-04 15:10:07.657 INFO: [145] LoggingUtils$Companion$OutputLogger$1$1.call#42:     Stream #0:1: Audio: aac (LC) (mp4a / 0x6134706D), 44100 Hz, stereo, fltp, 128 kb/s
Jibri 2022-10-04 15:10:07.657 INFO: [145] LoggingUtils$Companion$OutputLogger$1$1.call#42:     Metadata:
Jibri 2022-10-04 15:10:07.657 INFO: [145] LoggingUtils$Companion$OutputLogger$1$1.call#42:       encoder         : Lavc58.91.100 aac
Jibri 2022-10-04 15:10:07.657 INFO: [145] LoggingUtils$Companion$OutputLogger$1$1.call#42: frame=    8 fps=0.0 q=21.0 size=       0kB time=00:00:00.23 bitrate=   1.6kbits/s speed=0.459x

Crash logs in first message

I meant the server specs (CPU, RAM).
Your log shows the server is not strong enough to handle ffmpeg encoding at the default resolution.

# lscpu
Architecture:                    x86_64
CPU op-mode(s):                  32-bit, 64-bit
Byte Order:                      Little Endian
Address sizes:                   48 bits physical, 48 bits virtual
CPU(s):                          24
On-line CPU(s) list:             0-23
Thread(s) per core:              1
Core(s) per socket:              24
Socket(s):                       1
NUMA node(s):                    1
Vendor ID:                       AuthenticAMD
CPU family:                      6
Model:                           13
Model name:                      QEMU Virtual CPU version 2.5+
Stepping:                        3
CPU MHz:                         3094.188
BogoMIPS:                        6188.37
Hypervisor vendor:               KVM
Virtualization type:             full
L1d cache:                       1.5 MiB
L1i cache:                       1.5 MiB
L2 cache:                        12 MiB
L3 cache:                        16 MiB
NUMA node0 CPU(s):               0-23
# grep MemTotal /proc/meminfo
MemTotal:        7953888 kB

Jitsi and jibri both on this server.

Try to reduce resolution?

Is that all you have on this server? You’re using Docker, so I guess we should be looking at the specs of the actual docker pod, maybe? I’m not very familiar with docker.

Docker containers not limited for recources.

docker stats

CONTAINER ID   NAME                     CPU %     MEM USAGE / LIMIT     MEM %     NET I/O           BLOCK I/O         PIDS
25824d5faf01   jibri                    443.23%   1.673GiB / 7.585GiB   22.05%    146MB / 18.8MB    11.9GB / 17.5MB   359
71e8cd0b5939   jitsi-jvb                22.23%    442.6MiB / 7.585GiB   5.70%     41.1MB / 39.9MB   2.35GB / 180kB    144
e6efaabd62cc   jitsi-focus              1.15%     303.5MiB / 7.585GiB   3.91%     4.92MB / 510kB    424MB / 28.7kB    71
02b551dcbecf   jitsi-xmpp               0.09%     24.07MiB / 7.585GiB   0.31%     7.07MB / 11.5MB   199MB / 545kB     10
64e685266824   jitsi-web                0.18%     25.84MiB / 7.585GiB   0.33%     4.61MB / 47.6MB   92.4MB / 77.8kB   9
2d76c06f7e21   coturn                   2.34%     52.18MiB / 7.585GiB   0.67%     1.54GB / 1.54GB   1.08GB / 4.1kB    39
c7e3c71dc6a3   coturnmysql              0.14%     86.96MiB / 7.585GiB   1.12%     86.5MB / 74MB     3.76GB / 45.4MB   20

(recording in progress)

Decrease streaming resolution to 640x480.

All works fine.

Problem solved (more performance server for jibri needed).

You need a beefier server.