Current service had an error Error: QuitUnexpectedly SESSION

My stream gets stopped and below is log. Where can I find more information to understand the exact issue?

2021-12-21 18:04:49.559 INFO: [17] org.jitsi.jibri.selenium.status_checks.MediaReceivedStatusCheck.log() Jibri client receive bitrates: {audio={download=31, upload=0}, download=231, upload=0, video={download=200, upload=0}}, num participants: 2, numMutedParticipants: 0, numJigasis: 0, all clients muted? false
2021-12-21 18:05:04.545 INFO: [17] org.jitsi.jibri.selenium.status_checks.MediaReceivedStatusCheck.log() Jibri client receive bitrates: {audio={download=32, upload=0}, download=2594, upload=0, video={download=2562, upload=0}}, num participants: 2, numMutedParticipants: 1, numJigasis: 0, all clients muted? false
2021-12-21 18:05:19.531 INFO: [17] org.jitsi.jibri.selenium.status_checks.MediaReceivedStatusCheck.log() Jibri client receive bitrates: {audio={download=33, upload=0}, download=2531, upload=0, video={download=2498, upload=0}}, num participants: 2, numMutedParticipants: 1, numJigasis: 0, all clients muted? false
2021-12-21 18:05:23.745 FINE: [17] org.jitsi.jibri.webhooks.v1.WebhookClient.log() Updating 0 subscribers of status
2021-12-21 18:05:34.598 INFO: [17] org.jitsi.jibri.selenium.status_checks.MediaReceivedStatusCheck.log() Jibri client receive bitrates: {audio={download=32, upload=0}, download=2544, upload=0, video={download=2512, upload=0}}, num participants: 2, numMutedParticipants: 1, numJigasis: 0, all clients muted? false
2021-12-21 18:05:40.715 FINE: [17] org.jitsi.jibri.util.ProcessStatePublisher.log() Process ffmpeg hasn't written in 2 seconds, publishing periodic update
2021-12-21 18:05:40.716 INFO: [122] org.jitsi.jibri.capture.ffmpeg.FfmpegCapturer.log() Ffmpeg quit abruptly.  Last output line: frame= 4220 fps= 25 q=25.0 size=   38903kB time=00:02:20.64 bitrate=2266.0kbits/s speed=0.84x    
2021-12-21 18:05:40.716 INFO: [122] org.jitsi.jibri.capture.ffmpeg.FfmpegCapturer.log() Ffmpeg capturer transitioning from state Running to Error: QuitUnexpectedly SESSION frame= 4220 fps= 25 q=25.0 size=   38903kB time=00:02:20.64 bitrate=2266.0kbits/s speed=0.84x    
2021-12-21 18:05:40.717 INFO: [122] org.jitsi.jibri.service.impl.StreamingJibriService.log() Streaming service transitioning from state Running to Error: QuitUnexpectedly SESSION frame= 4220 fps= 25 q=25.0 size=   38903kB time=00:02:20.64 bitrate=2266.0kbits/s speed=0.84x    
2021-12-21 18:05:40.717 INFO: [122] org.jitsi.jibri.api.xmpp.XmppApi.log() Current service had an error Error: QuitUnexpectedly SESSION frame= 4220 fps= 25 q=25.0 size=   38903kB time=00:02:20.64 bitrate=2266.0kbits/s speed=0.84x    , sending error iq <iq xmlns='jabber:client' to='jibribrewery@internal.auth.mydomain.com/focus' id='HAAUF-464' type='set'><jibri xmlns='http://jitsi.org/protocol/jibri' status='off' failure_reason='error' should_retry='true'/></iq>
2021-12-21 18:05:40.717 FINE: [122] org.jitsi.jibri.statsd.JibriStatsDClient.log() Incrementing statsd counter: stop:live_stream
2021-12-21 18:05:40.718 INFO: [122] org.jitsi.jibri.JibriManager.log() Stopping the current service
2021-12-21 18:05:40.718 INFO: [122] org.jitsi.jibri.service.impl.StreamingJibriService.log() Stopping capturer
2021-12-21 18:05:40.718 INFO: [122] org.jitsi.jibri.util.JibriSubprocess.log() Stopping ffmpeg process
2021-12-21 18:05:40.728 INFO: [122] org.jitsi.jibri.util.JibriSubprocess.log() ffmpeg exited with value 137
2021-12-21 18:05:40.728 INFO: [122] org.jitsi.jibri.service.impl.StreamingJibriService.log() Stopped capturer
2021-12-21 18:05:40.729 INFO: [122] org.jitsi.jibri.service.impl.StreamingJibriService.log() Quitting selenium
2021-12-21 18:05:40.729 INFO: [122] org.jitsi.jibri.selenium.JibriSelenium.log() Leaving call and quitting browser
2021-12-21 18:05:40.729 INFO: [122] org.jitsi.jibri.selenium.JibriSelenium.log() Recurring call status checks cancelled
2021-12-21 18:05:40.762 INFO: [122] org.jitsi.jibri.selenium.JibriSelenium.log() Got 12 log entries for type browser
2021-12-21 18:05:40.874 INFO: [122] org.jitsi.jibri.selenium.JibriSelenium.log() Got 1285 log entries for type driver
2021-12-21 18:05:41.082 INFO: [122] org.jitsi.jibri.selenium.JibriSelenium.log() Got 0 log entries for type client
2021-12-21 18:05:41.082 INFO: [122] org.jitsi.jibri.selenium.JibriSelenium.log() Leaving web call
2021-12-21 18:05:41.436 INFO: [122] org.jitsi.jibri.selenium.JibriSelenium.log() Quitting chrome driver
2021-12-21 18:05:41.648 INFO: [122] org.jitsi.jibri.selenium.JibriSelenium.log() Chrome driver quit
2021-12-21 18:05:41.649 INFO: [122] org.jitsi.jibri.service.impl.StreamingJibriService.log() Quit selenium
2021-12-21 18:05:41.649 INFO: [122] org.jitsi.jibri.status.JibriStatusManager.log() Busy status has changed: BUSY -> IDLE
2021-12-21 18:05:41.649 FINE: [122] org.jitsi.jibri.webhooks.v1.WebhookClient.log() Updating 0 subscribers of status
2021-12-21 18:05:41.649 INFO: [122] org.jitsi.jibri.api.xmpp.XmppApi.log() Jibri reports its status is now JibriStatus(busyStatus=IDLE, health=OverallHealth(healthStatus=HEALTHY, details={})), publishing presence to connections

Maybe resources, what are the available resources for this jibri?

its 8 gb server and 2 cpu

Only for jibri?

yes, i have installed Jibri on separate instance

Ffmpeg is not writing fast enough. Your server is not powerful enough to handle Jibri’s default 1080p resolution. You need at least 4 cores (you have 2).

You can alternatively downscale to 720p resolution. But even then 2 cores will be taking a chance for recording that lasts longer than a few minutes.

Let me try and post the status here